<?xml version="1.0" standalone="no"?>
<!DOCTYPE svg PUBLIC "-//W3C//DTD SVG 1.1//EN" "http://www.w3.org/Graphics/SVG/1.1/DTD/svg11.dtd" >
<!--
2013-9-30: Created.
-->
<svg>
<metadata>
Created by iconfont
</metadata>
<defs>

<font id="iconfont" horiz-adv-x="1024" >
  <font-face
    font-family="iconfont"
    font-weight="500"
    font-stretch="normal"
    units-per-em="1024"
    ascent="896"
    descent="-128"
  />
    <missing-glyph />
    
    <glyph glyph-name="zhiding" unicode="&#58916;" d="M477.35552 518.26048 174.86976 215.75936c-17.43488-17.4144-24.96512-38.19008-7.51488-55.63008 17.43488-17.42976 38.1952-9.92 55.63008 7.50976l254.20032 254.19904 0-457.66912c0-22.70976 9.89952-41.11488 32.60416-41.11488 22.71104 0 35.45088 18.40512 35.45088 41.11488L545.24032 421.83936l253.84064-253.84448c17.44-17.42976 37.68064-25.45536 55.13984-8.01536 17.43488 17.45536 10.41024 38.69952-7.02464 56.13056L544.65536 518.6496c0 0-18.1248 20.62592-31.87968 20.62592C496.45056 539.27552 477.35552 518.26048 477.35552 518.26048L477.35552 518.26048 477.35552 518.26048zM203.55456 605.70496l614.60096 0c28.34048 0 44.66048 8.66048 44.66048 33.34016 0 24.63488-14.1696 34.71488-44.66048 34.71488L203.55456 673.76c-28.22016 0-44.6592-9.3696-44.6592-34.02496C158.89536 615.07968 175.76448 605.70496 203.55456 605.70496L203.55456 605.70496 203.55456 605.70496zM203.55456 605.70496"  horiz-adv-x="1024" />

    
    <glyph glyph-name="shouji" unicode="&#58892;" d="M775.953067 794.933333 248.046933 794.933333c-36.420267 0-65.979733-29.559467-65.979733-65.979733l0-857.873067c0-36.4544 29.559467-66.013867 65.979733-66.013867l527.940267 0c36.420267 0 65.979733 29.559467 65.979733 66.013867L841.966933 728.9536C841.966933 765.373867 812.407467 794.933333 775.953067 794.933333zM248.046933 745.44l527.940267 0c9.1136 0 16.4864-7.3728 16.4864-16.4864l0-668.16L231.5264 60.7936 231.5264 728.9536C231.5264 738.033067 238.933333 745.44 248.046933 745.44zM775.953067-145.44 248.046933-145.44c-9.1136 0-16.4864 7.3728-16.4864 16.4864l0 140.219733 560.9472 0 0-140.219733C792.4736-138.033067 785.066667-145.44 775.953067-145.44zM512-62.939733m-49.493333 0a1.45 1.45 0 1 0 98.986667 0 1.45 1.45 0 1 0-98.986667 0Z"  horiz-adv-x="1024" />

    
    <glyph glyph-name="liebiao7" unicode="&#58954;" d="M932.064 67.296C925.408 73.952 916.64 77.6 907.328 77.6L99.04 77.6C79.712 77.6 64 61.888 64 42.56 64 23.232 79.712 7.52 99.04 7.52L907.328 7.52C926.656 7.52 942.368 23.232 942.368 42.56 942.368 51.872 938.72 60.64 932.064 67.296ZM907.328 427.424 99.04 427.424C79.712 427.424 64 411.712 64 392.384 64 373.056 79.712 357.344 99.04 357.344L907.328 357.344C926.656 357.344 942.368 373.056 942.368 392.384 942.368 401.696 938.72 410.464 932.064 417.12 925.408 423.776 916.64 427.424 907.328 427.424ZM932.064 757.664C925.408 764.32 916.64 768 907.328 768L99.04 768C79.712 768 64 752.256 64 732.928 64 713.632 79.712 697.888 99.04 697.888L907.328 697.888C926.656 697.888 942.368 713.632 942.368 732.928 942.368 742.24 938.72 751.04 932.064 757.664Z"  horiz-adv-x="1024" />

    
    <glyph glyph-name="guanbi2" unicode="&#58962;" d="M512 864c-264.654 0-480-215.346-480-480s215.324-480 480-480c264.676 0 480 215.324 480 480 0 264.654-215.324 480-480 480zM671.774 250.713c8.16-8.182 8.16-21.382 0-29.542-4.08-4.102-9.404-6.087-14.771-6.087-5.324 0-10.647 2.007-14.749 6.087l-131.782 131.804-131.804-131.804c-4.08-4.102-9.426-6.131-14.771-6.131-5.324 0-10.669 2.051-14.749 6.131-8.16 8.138-8.16 21.36 0 29.498l131.804 131.804-127.724 127.724c-8.138 8.182-8.138 21.36 0 29.542 8.138 8.138 21.36 8.138 29.52 0l127.724-127.724 134.814 134.836c8.182 8.138 21.36 8.138 29.542 0 8.138-8.16 8.138-21.36 0-29.542l-134.836-134.836 131.782-131.76z"  horiz-adv-x="1026" />

    
    <glyph glyph-name="jiantou32" unicode="&#59182;" d="M767.893 446.614l-250.773-250.667-250.667 250.667z"  horiz-adv-x="1024" />

    
    <glyph glyph-name="type" unicode="&#59072;" d="M489.714 507.635c0-56.246-45.635-101.881-101.881-101.881h-251.51c-56.245 0.531-101.881 46.166-101.881 101.881v252.043c0 56.245 45.635 101.882 101.881 101.882h251.51c56.245 0 101.881-45.636 101.881-101.882v-252.043zM431.342 759.677c0 23.881-19.099 42.983-42.978 42.983h-252.043c-23.879 0-42.982-19.103-42.982-42.983v-252.042c0-23.881 19.103-42.978 42.982-42.978h251.51c23.879 0 42.982 19.098 42.982 42.978v252.042h0.527zM151.711 626.494c-7.959 0-14.857 6.366-14.857 14.858v26.53c0 40.858 27.057 76.407 64.731 76.407h91.802c7.954 0 14.855-6.367 14.855-14.858 0-7.956-6.368-14.858-14.855-14.858h-91.801c-22.816 0-35.018-25.468-35.018-47.222v-26.533c0-7.959-6.371-14.325-14.858-14.325v0 0zM146.402 576.085c-3.713 0-7.428 1.589-10.611 4.241-2.652 2.658-4.246 6.901-4.246 10.619 0 3.714 1.595 7.429 4.246 10.612 5.302 5.301 15.389 5.301 20.691 0 2.658-2.658 4.247-6.37 4.247-10.612 0-3.715-1.589-7.43-4.247-10.085-2.653-3.184-6.366-4.773-10.080-4.773v0 0zM989.557 507.635c0-56.246-45.635-101.881-101.879-101.881h-252.045c-56.246 0-101.879 45.634-101.879 101.881v252.043c0 56.245 45.633 101.882 101.879 101.882h252.044c56.244 0 101.879-45.636 101.879-101.882v-252.043h0.001zM930.656 759.677c0 23.881-19.099 42.983-42.978 42.983h-252.045c-23.877 0-42.983-19.103-42.983-42.983v-252.042c0-23.881 19.106-42.978 42.983-42.978h252.044c23.879 0 42.978 19.098 42.978 42.978v252.042h0.001zM489.714 8.321c0-56.243-45.635-101.878-101.881-101.878h-251.51c-56.245 0-101.881 45.635-101.881 101.878v252.045c0 56.246 45.635 101.881 101.881 101.881h251.51c56.245 0 101.881-45.634 101.881-101.881v-252.045zM431.342 260.365c0 23.881-19.099 42.983-42.978 42.983h-252.043c-23.879 0-42.982-19.103-42.982-42.983v-252.045c0-23.878 19.103-42.977 42.982-42.977h251.51c23.879 0 42.982 19.099 42.982 42.977v252.045h0.527zM989.557 8.321c0-56.243-45.635-101.878-101.879-101.878h-252.045c-56.246 0-101.879 45.635-101.879 101.878v252.045c0 56.246 45.633 101.881 101.879 101.881h252.044c56.244 0 101.879-45.634 101.879-101.881v-252.045h0.001zM930.656 260.365c0 23.881-19.099 42.983-42.978 42.983h-252.045c-23.877 0-42.983-19.103-42.983-42.983v-252.045c0-23.878 19.106-42.977 42.983-42.977h252.044c23.879 0 42.978 19.099 42.978 42.977v252.045h0.001zM930.656 260.365z"  horiz-adv-x="1024" />

    
    <glyph glyph-name="erweima" unicode="&#58944;" d="M922.05-64l-16.4875 0L905.5625 28.375l54.2625 0 0-54.6C959.825-47.0875 942.9125-64 922.05-64zM932.7 416.8 571.7625 416.8c-0.175 0-0.3375 0.0125-0.5125 0.0125-0.175 0-0.3375-0.0125-0.5125-0.0125-14.9875 0-27.125 12.15-27.125 27.125L543.6125 804.875c0 14.9875 12.15 27.125 27.125 27.125 0.175 0 0.3375-0.0125 0.5125-0.0125 0.175 0 0.3375 0.0125 0.5125 0.0125l360.9375 0c14.9875 0 27.125-12.15 27.125-27.125l0-360.9375C959.825 428.9375 947.6875 416.8 932.7 416.8zM905.575 777.7375 597.8625 777.7375l0-306.675 307.7125 0L905.575 777.7375zM751.7125 665.4375c22.575 0 40.8625-18.3 40.8625-40.8625 0-22.575-18.3-40.8625-40.8625-40.8625-22.575 0-40.8625 18.3-40.8625 40.8625C710.85 647.1375 729.1375 665.4375 751.7125 665.4375zM454.3-64 93.3625-64c-0.175 0-0.3375 0.0125-0.5125 0.0125-0.175 0-0.3375-0.0125-0.5125-0.0125-14.9875 0-27.125 12.15-27.125 27.125L65.2125 324.075c0 14.9875 12.15 27.125 27.125 27.125 0.175 0 0.3375-0.0125 0.5125-0.0125 0.175 0 0.3375 0.0125 0.5125 0.0125l360.9375 0c14.9875 0 27.125-12.15 27.125-27.125L481.425-36.875C481.4375-51.85 469.2875-64 454.3-64zM119.4625 296.9375l0-306.675 307.7125 0L427.175 296.9375 119.4625 296.9375zM273.325 102.9c-22.575 0-40.8625 18.3-40.8625 40.8625s18.3 40.8625 40.8625 40.8625c22.575 0 40.8625-18.3 40.8625-40.8625S295.8875 102.9 273.325 102.9zM453.275 416.8 92.3375 416.8c-0.175 0-0.3375 0.0125-0.5125 0.0125-0.175 0-0.3375-0.0125-0.5125-0.0125-14.9875 0-27.125 12.15-27.125 27.125L64.1875 804.875c0 14.9875 12.15 27.125 27.125 27.125 0.175 0 0.3375-0.0125 0.5125-0.0125 0.175 0 0.3375 0.0125 0.5125 0.0125l360.9375 0c14.9875 0 27.125-12.15 27.125-27.125l0-360.9375C480.4 428.9375 468.2625 416.8 453.275 416.8zM426.15 777.7375 118.4375 777.7375l0-306.675 307.7125 0L426.15 777.7375zM272.2875 665.4375c22.575 0 40.8625-18.3 40.8625-40.8625 0-22.575-18.3-40.8625-40.8625-40.8625-22.575 0-40.8625 18.3-40.8625 40.8625C231.425 647.1375 249.7125 665.4375 272.2875 665.4375zM583.0875 349.1375l218.075 0 0-133.25 104.0625 0L905.225 350.175l16.4875 0c20.8625 0 37.775-16.9125 37.775-37.775l0-203.3125-54.2625 0 0 1.025-201.25 0 0 93.75-104.4 0L599.575-64l-16.4875 0c-20.8625 0-37.775 16.9125-37.775 37.775L545.3125 210.7375l0 5.15 0 95.475C545.3125 332.225 562.225 349.1375 583.0875 349.1375zM773.6875-62.975l-54.2625 0L719.425 27l54.2625 0L773.6875-62.975z"  horiz-adv-x="1024" />

    
    <glyph glyph-name="cha" unicode="&#58991;" d="M567.926154 384l444.376615-444.376615a39.502769 39.502769 0 0 0 0-55.926154 39.502769 39.502769 0 0 0-55.926154 0L512 328.073846 67.623385-116.302769a39.502769 39.502769 0 0 0-55.926154 0 39.502769 39.502769 0 0 0 0 55.926154L456.073846 384 11.697231 828.376615a39.502769 39.502769 0 0 0 0 55.926154 39.502769 39.502769 0 0 0 55.926154 0L512 439.926154 956.376615 884.302769a39.502769 39.502769 0 0 0 55.926154 0 39.502769 39.502769 0 0 0 0-55.926154L567.926154 384z"  horiz-adv-x="1024" />

    
    <glyph glyph-name="wangluolianjieshibai" unicode="&#59020;" d="M1075.005956 599.943692c6.652951 0 12.751489 2.21765 17.741202 6.652951 10.533839 9.425014 11.088251 26.05739 1.663237 36.591229-139.711965 150.800217-337.63725 237.288576-542.769897 237.288576-205.132648 0-395.850568-82.053059-536.671359-231.74445-9.979426-10.533839-9.425014-26.611803 1.108825-36.591229 10.533839-9.979426 26.611803-9.425014 36.591229 1.108825 130.841364 138.60314 308.253384 215.112074 498.971305 215.112074S925.868977 747.971846 1055.601516 607.705468c4.989713-4.4353 12.197076-7.761776 19.40444-7.761776M931.413102 429.739036c6.098538 0 12.197076 2.21765 17.18679 6.652951 10.533839 9.425014 11.642664 26.05739 2.21765 36.591229-101.457499 113.100162-246.71359 177.966432-398.622631 177.966432-149.136979 0-292.17542-62.648619-393.078506-172.422306-9.425014-10.533839-8.870601-26.611803 1.663238-36.591229 10.533839-9.425014 26.611803-8.870601 36.591229 1.663237 91.478073 99.239848 220.656199 155.78993 355.378451 155.78993 137.494315 0 268.335679-58.767731 359.813752-160.779643 4.4353-6.098538 11.642664-8.870601 18.850027-8.870601m-154.681104-181.292907c-7.207363 0-14.969139 3.326475-19.958852 9.425013-50.451543 61.539794-125.297239 96.467786-205.132648 96.467786-77.063346 0-150.245804-33.264754-200.697347-91.478073-9.425014-10.533839-25.502978-12.197076-36.591229-2.772062-10.533839 9.425014-12.197076 25.502978-2.772063 36.591229 60.430969 69.855983 147.473741 109.773687 239.506227 109.773687 95.35896 0 184.619383-42.135355 245.050351-115.317813 8.870601-11.088251 7.761776-27.166215-3.326475-36.591229-4.4353-3.880888-9.979426-6.098538-16.077964-6.098538M554.966973 10.60314c-15.523552 0-28.275041-12.751489-28.27504-28.27504s12.751489-28.275041 28.27504-28.275041 28.275041 12.751489 28.275041 28.275041-12.751489 28.275041-28.275041 28.27504zM582.133189 153.087168c0 13.860314-14.414727 24.948565-27.720628 24.948566-13.860314 0-27.720628-11.088251-27.720628-24.948566l7.207363-104.229561c0-13.860314 6.098538-24.948565 19.958852-24.948565s21.067677 11.088251 21.067678 24.948565L582.133189 153.087168z m-27.720628-267.781267c-99.239848 0-180.184082 80.389821-180.184082 180.184083 0 99.239848 80.389821 180.184082 180.184082 180.184082 99.239848 0 180.184082-80.389821 180.184082-180.184082 0-99.239848-80.944234-180.184082-180.184082-180.184083z"  horiz-adv-x="1108" />

    
    <glyph glyph-name="guanyuwomen" unicode="&#58942;" d="M325.13536-96.44032c-31.02208 0-60.43136 14.4384-80.69632 39.61856-22.95296 30.72512-31.11936 71.6288-21.94944 109.56288l0.1024 0.41472 0.16896 0.39424a2101.61664 2101.61664 0 0 0 87.76192 180.58752l5.87776 11.56096C352.9728 317.56288 393.9328 398.04928 410.4192 436.99712a464.2816 464.2816 0 0 1-83.8912-50.11968 21.33504 21.33504 0 0 0-12.40576-4.02432 21.44768 21.44768 0 0 0-14.8736 6.0672c-7.2704 6.99392-8.1664 18.82112-2.05312 26.93632C359.39328 498.88256 426.61888 575.72352 496.7424 575.72352c25.97376-0.48128 51.23584-10.43968 71.22944-28.032l0.58368-0.51712c83.15392-69.89824 4.60288-229.30944-73.22112-360.4992-71.6032-120.68864-69.12512-150.97856-67.58912-156.38016a2.60096 2.60096 0 0 1 0.83968-0.13824l0.36352 0.06144 0.77312 0.03584a528.13312 528.13312 0 0 1 88.05888 8.35584c1.24416 0.27136 2.69824 0.43008 4.1472 0.43008 7.81824 0 15.02208-4.50048 18.7904-11.74528 4.21376-8.95488 1.76128-19.49184-5.7344-25.2416-81.2032-65.26976-150.39488-98.40128-205.55264-98.40128-1.28512-0.06144-2.7904-0.09216-4.29568-0.09216zM429.46048 484.65408c9.18528 0 17.82784-4.3008 23.70048-11.80672l0.20992-0.26112 0.16896-0.28672a38.51264 38.51264 0 0 0 2.048-35.05664c-10.77248-32.30208-58.25024-125.33248-104.1664-215.296l-3.4304-6.72256c-37.76512-74.0352-80.36864-157.53728-84.76672-173.42464-5.8112-25.61024-0.4608-52.44416 14.73536-73.39008 11.93472-14.74048 29.39392-23.31648 47.74912-23.31648 1.17248 0 2.34496 0.03584 3.52256 0.10752 22.17984 0.01024 59.6224 7.936 116.63872 43.89376a455.0656 455.0656 0 0 0-16.08704-0.29696 28.6208 28.6208 0 0 0-3.03104-0.13312c-14.0288 0-27.10016 7.39328-34.97472 19.78368l0.82944 0.66048-0.90112-0.52224c-12.43648 21.3504-14.1568 61.70112 67.41504 199.10144 37.00224 62.3872 149.60128 252.24192 81.792 308.25472-12.52352 11.35104-28.19072 17.77664-44.28288 18.23744-25.36448 0-55.424-17.74592-91.41248-54.11328a115.7632 115.7632 0 0 0 22.13888 4.5056c0.8192 0.06144 1.46432 0.08192 2.10432 0.08192z m188.46208 101.64224c-72.59648 0-132.21376 60.9792-135.72608 138.82368 3.51232 78.32064 63.14496 139.31008 135.75168 139.31008 1.93024 0 3.8656-0.04096 5.80608-0.128 1.44384 0.08704 3.34336 0.12288 5.22752 0.12288 72.6016 0 132.16256-60.98944 135.60832-138.84928-3.44064-78.29504-62.99136-139.27424-135.57248-139.27424h-0.01536c-1.88928 0-3.80416 0.04096-5.7088 0.128-1.50016-0.08704-3.44064-0.13312-5.37088-0.13312z m1.25952 236.59008c-50.7904 0-92.50304-42.94656-94.97088-97.7664 2.47296-54.3488 44.19072-97.28 94.97088-97.28 1.36192 0 2.72896 0.03072 4.10624 0.09728 1.78176-0.05632 3.09248-0.08704 4.4032-0.08704 50.76992 0 92.42624 42.92608 94.82752 97.72544-2.39104 54.36928-44.04736 97.3056-94.82752 97.3056-1.3056 0-2.62656-0.03072-3.94752-0.08704a147.42016 147.42016 0 0 1-4.56192 0.09216z"  horiz-adv-x="1024" />

    
    <glyph glyph-name="zhuce" unicode="&#58999;" d="M562.846445 93.415518L850.17733 383.49216a77.904586 77.904586 0 0 0 110.903582 0l26.109643-26.359258a79.876538 79.876538 0 0 0 0-111.926999L699.834708-44.895701 480.199189-127.418149l82.622294 220.833667z m-3.594445-140.957129l115.246868 43.357984 3.095216 3.120177-71.863923 72.388113-3.145139-3.195062-43.333022-115.671212z m150.916735 79.352349l188.808168 190.60539-71.888885 72.562843-188.783206-190.630352 71.863923-72.537881z m221.357857 223.479578l23.214119 23.41381a32.949072 32.949072 0 0 1 0 46.228547l-26.084682 26.334296a32.275114 32.275114 0 0 1-45.804202 0l-23.189158-23.463733 71.838962-72.388113z m78.553584-354.10268a37.442127 37.442127 0 0 1-0.998457 6.86439l-1.422801 10.483796a577.532335 577.532335 0 0 1-78.104278 222.780658l-41.061533-40.262768a518.748195 518.748195 0 0 0 64.300614-184.714495l1.023418-7.089043h1.173187v-8.661612a27.557406 27.557406 0 1 1 55.08985 0.249614v0.399383zM743.467267 323.31018a493.337471 493.337471 0 0 1-32.025499 16.774074l-12.006443 5.716164 9.984568 8.711535a305.00357 305.00357 0 1 1-396.312438 0l9.984567-8.711535-12.006442-5.716164A539.9654 539.9654 0 0 1 14.843468-81.588985l-1.797222-13.229552v-4.792592a27.582367 27.582367 0 1 1 55.164734 0l-0.374421 3.294907 1.847145 12.630477c26.858486 183.092003 148.37067 336.979147 309.521586 391.894267l3.444676 1.198149 3.095216-1.422801a299.537019 299.537019 0 0 1 251.111868 0l3.095216 1.422801 3.220023-1.098303a414.509312 414.509312 0 0 0 62.603237-27.45756l37.641818 42.559218z m-111.078311 43.707444a247.742076 247.742076 0 0 0-242.125757 0 250.412948 250.412948 0 1 0 242.125757 0z"  horiz-adv-x="1024" />

    
    <glyph glyph-name="gongsi1" unicode="&#58880;" d="M812.902164 615.9814690000001l-115.572202 0c1.737574 6.068206 2.688225 12.459776 2.688225 19.069311l0 44.887326c0 38.728046-31.928177 70.234621-71.174016 70.234621L395.156852 750.172727c-39.245839 0-71.174016-31.507598-71.174016-70.234621l0-44.887326c0-6.609535 0.950651-13.001105 2.688225-19.069311l-115.572202 0c-64.384379 0-116.764354-51.537793-116.764354-114.88761l0-368.381022c0-63.348794 52.380998-114.88761 116.764354-114.88761l601.804329 0c64.384379 0 116.764354 51.537793 116.764354 114.88761L929.667541 501.093858C929.666518 564.443675 877.286544 615.9814690000001 812.902164 615.9814690000001zM375.148146 635.05078l0 44.887326c0 10.337439 9.162684 19.069311 20.008706 19.069311l233.68732 0c10.846022 0 20.008706-8.732895 20.008706-19.069311l0-44.887326c0-10.337439-9.162684-19.069311-20.008706-19.069311L395.156852 615.9814690000001C384.310829 615.9814690000001 375.148146 624.7143639999999 375.148146 635.05078zM211.097836 564.816159l184.059016 0 233.68732 0 184.057993 0c36.171828 0 65.599044-28.586059 65.599044-63.7223l0-48.370661L145.498792 452.723198l0 48.370661C145.498792 536.2301 174.927031 564.816159 211.097836 564.816159zM596.404342 401.558911c-11.357675-37.383422-46.939055-64.739467-88.963171-64.739467-42.025139 0-77.606519 27.356045-88.964194 64.739467L596.404342 401.558911zM812.902164 68.99156000000005L211.097836 68.99156000000005c-36.171828 0-65.599044 28.586059-65.599044 63.7223L145.498792 401.558911l220.381269 0c12.282744-65.846684 71.084988-115.904777 141.56111-115.904777 70.476121 0 129.278365 50.058093 141.56111 115.904777l229.498928 0 0-268.845051C878.501208 97.57761800000003 849.072969 68.99156000000005 812.902164 68.99156000000005z"  horiz-adv-x="1024" />

    
    <glyph glyph-name="dagou" unicode="&#59022;" d="M256.836553 357.954811a5.505387 5.505387 0 0 1 0.476861-7.085372L425.709705 176.588113l0.034792-0.036839a5.505387 5.505387 0 0 1 7.785314-0.062421l363.934756 358.166379 0.055259 0.055258a5.505387 5.505387 0 0 1-0.048096 7.785314l-22.093181 21.818935a5.505387 5.505387 0 0 1-7.392364 0.312108L432.961876 285.524175a5.505387 5.505387 0 0 0-6.872525-0.140193L288.163025 391.096628l-0.089027 0.066515a5.505387 5.505387 0 0 1-7.696286-1.175778l-23.541159-32.032554z m767.138888 19.72525c0-276.441053-229.213425-505.654478-518.296403-505.654478-276.441053 0-505.654478 229.213425-505.654479 505.654478 0 289.082978 229.213425 518.296403 505.654479 518.296403 289.082978-0.001023 518.296403-229.214449 518.296403-518.296403z"  horiz-adv-x="1024" />

    
    <glyph glyph-name="youxiang" unicode="&#58935;" d="M916.970325-75.093333H106.303659c-58.026667 0-105.813333 47.786667-105.813334 105.813333V583.68C0.490325 643.413333 48.276992 691.2 106.303659 691.2h808.96c58.026667 0 105.813333-47.786667 105.813333-105.813333v-552.96c1.706667-59.733333-46.08-107.52-104.106667-107.52zM106.303659 648.533333c-35.84 0-63.146667-29.013333-63.146667-63.146666v-552.96c0-35.84 29.013333-63.146667 63.146667-63.146667h808.96c35.84 0 63.146667 29.013333 63.146666 63.146667V583.68c0 35.84-29.013333 63.146667-63.146666 63.146667H106.303659z m0 0M512.490325 179.2c-34.133333 0-69.973333 11.946667-97.28 35.84L7.316992 568.32c-8.533333 8.533333-10.24 20.48-1.706667 30.72 8.533333 8.533333 20.48 10.24 30.72 1.706667L442.516992 247.466667c39.253333-34.133333 100.693333-34.133333 139.946667 0l406.186666 353.28c8.533333 6.826667 22.186667 6.826667 30.72-1.706667s6.826667-22.186667-1.706666-30.72L609.770325 215.04C582.463659 191.146667 546.623659 179.2 512.490325 179.2z m0 0M119.956992 93.866667c-5.12 0-11.946667 1.706667-15.36 6.826666-8.533333 8.533333-6.826667 22.186667 1.706667 30.72l221.866666 192.853334c8.533333 6.826667 22.186667 6.826667 30.72-1.706667s6.826667-22.186667-1.706666-30.72l-221.866667-192.853333c-5.12-3.413333-10.24-5.12-15.36-5.12z m783.36 0c-5.12 0-10.24 1.706667-13.653333 5.12L669.503659 291.84c-8.533333 8.533333-10.24 20.48-1.706667 30.72 8.533333 8.533333 20.48 10.24 30.72 1.706667l220.16-191.146667c8.533333-8.533333 10.24-20.48 1.706667-30.72-5.12-5.12-11.946667-8.533333-17.066667-8.533333z m0 0"  horiz-adv-x="1024" />

    
    <glyph glyph-name="dizhi" unicode="&#59021;" d="M512.945231 896C245.641846 896 85.464615 682.811077 123.825231 450.363077c36.352-220.829538 355.091692-530.786462 389.12-556.898462 34.028308 26.112 360.290462 334.966154 389.159384 556.898462C932.233846 682.811077 778.909538 896 512.945231 896z m0-556.504615c-93.656615 0-169.708308 75.815385-169.708308 169.078153 0 93.223385 76.051692 169.117538 169.708308 169.117539 93.577846 0 169.668923-75.933538 169.668923-169.117539 0-93.262769-76.091077-169.117538-169.668923-169.117538z"  horiz-adv-x="1024" />

    
    <glyph glyph-name="gongsi" unicode="&#58922;" d="M542.571594 109.746087h-99.431884a22.854493 22.854493 0 0 0 0 45.412174h99.431884a22.854493 22.854493 0 0 0 0-45.412174z m0 159.091014h-99.431884a22.854493 22.854493 0 0 0 0 45.412174h99.431884a22.854493 22.854493 0 0 0 0-45.412174z m0 159.091015h-99.431884a22.854493 22.854493 0 0 0 0 45.412174h99.431884a22.854493 22.854493 0 0 0 0-45.412174z m0 159.091014h-99.431884a22.854493 22.854493 0 0 0 0 45.412174h99.431884a22.854493 22.854493 0 0 0 0-45.412174zM373.982609 109.746087H274.847536a22.854493 22.854493 0 0 0 0 45.412174h99.135073a22.854493 22.854493 0 0 0 0-45.412174z m0 159.091014H274.847536a22.854493 22.854493 0 0 0 0 45.412174h99.135073a22.854493 22.854493 0 0 0 0-45.412174z m0 159.091015H274.847536a22.854493 22.854493 0 0 0 0 45.412174h99.135073a22.854493 22.854493 0 0 0 0-45.412174z m0 159.091014H274.847536a22.854493 22.854493 0 0 0 0 45.412174h99.135073a22.854493 22.854493 0 0 0 0-45.412174z m504.57971-476.976231h-98.541449a22.854493 22.854493 0 0 0 0 45.412173h99.431884a22.854493 22.854493 0 0 0 0-45.412173z m0 159.091014h-98.541449a22.854493 22.854493 0 0 0 0 45.412174h99.431884a22.854493 22.854493 0 0 0 0-45.412174zM1120.463768-128h-1098.202898a22.26087 22.26087 0 0 0 0 44.521739H118.724638V829.217391A66.782609 66.782609 0 0 0 185.507246 896h445.217392a66.782609 66.782609 0 0 0 66.782608-66.782609V539.826087h259.710145a66.782609 66.782609 0 0 0 66.782609-66.782609V-83.478261h96.463768a22.26087 22.26087 0 0 0 0-44.521739zM697.507246-83.478261H979.478261V473.043478a22.26087 22.26087 0 0 1-22.26087 22.26087H697.507246z m-534.260869 0H652.985507V829.217391a22.26087 22.26087 0 0 1-22.260869 22.26087h-445.217392a22.26087 22.26087 0 0 1-22.260869-22.26087z"  horiz-adv-x="1142" />

    
    <glyph glyph-name="youxiang1" unicode="&#59018;" d="M677.288 359.097L509.973 203.04499999999996 339.441 359.097 93.295 129.039h831.748L677.287 359.097z m276.714 249.362v-423.114l-238.1 209.145 238.1 213.969z m-889.666-3.215l231.666-212.361L64.336 185.34900000000005V605.244z m28.958 56.306l418.287-389.33 413.461 389.33H93.294z"  horiz-adv-x="1024" />

    
    <glyph glyph-name="guanggao" unicode="&#58884;" d="M779.88352 4.48c0-12.9792-6.58432-23.40352-14.53568-23.40352H233.30304c-7.95136 0-14.53568 10.42432-14.53568 23.40352 0 12.9792 6.58432 23.40352 14.53568 23.40352h532.0448c8.04352-0.09216 14.53568-10.60864 14.53568-23.40352zM880.48128 715.776c12.2368 0 23.93088-4.85888 32.56832-13.58336a46.0288 46.0288 0 0 0 13.49632-32.56832v-496.60928c0-25.55392-20.78208-46.1568-46.1568-46.1568H143.61088a45.7472 45.7472 0 0 0-32.56832 13.58336 46.0288 46.0288 0 0 0-13.49632 32.56832V669.62432c0 25.55392 20.78208 46.1568 46.1568 46.1568l736.77824-0.00512m5.9136 51.63008H137.69728c-51.83488 0-93.70112-41.9584-93.70112-93.79328v-504.58112c0-51.83488 41.87136-93.79328 93.70112-93.79328h748.61056c51.83488 0 93.70112 41.9584 93.70112 93.79328v504.576c0.08704 51.74272-41.96352 93.7984-93.61408 93.7984zM410.30144 562.19136h-45.06624l-110.70464-281.472h47.99488l28.43136 74.86976h113.08032l28.43136-74.86976h48.45056L410.30144 562.19136z m18.7392-166.74304H346.0352l41.68704 108.96896 41.3184-108.96896z m305.69472 127.52384c-22.67136 25.96352-56.77056 39.03488-101.10464 39.03488h-102.84544v-281.37984h99.82464c43.78624 0 78.06976 13.16352 101.74464 39.03488 22.5792 24.68352 34.0992 58.86976 34.0992 101.74464-0.08704 43.42784-10.78272 77.70624-31.7184 101.56544z m-12.79488-101.65248c0-32.8192-7.86432-57.77408-23.2192-74.59328-16.1792-17.00352-40.95488-25.59488-73.58976-25.59488h-49.91488V521.51296h53.29408c32.63488 0 56.94976-8.50432 71.85408-24.95488 14.35136-16.18432 21.57568-41.41568 21.57568-75.2384z"  horiz-adv-x="1024" />

    
    <glyph glyph-name="dianhua" unicode="&#58905;" d="M959.4 570.6c-1 39.2-25.3 83.1-74.4 111.8C758.4 756.3 512 757 512 757s-246.4-0.7-373-74.6c-49.5-28.8-73.7-73.3-74.4-112.6-1-58.8 50.4-106.3 149-73.9 93.3 30.7 55.8 89.4 111.9 111.9 95.4 38.3 186.5 37.3 186.5 37.3s91.4 1.3 186.5-37.3c56-22.7 18.6-81.2 111.9-111.9 99.1-32.6 150.6 15.6 149 74.7zM640.2 522.4h-64v-64h-128v64h-63.5v-64L128.6 234.8v-149.2c0-41.2 43.9-74.6 85.1-74.6h596.8c41.2 0 86.1 33.4 86.1 74.6V234.8L640.2 458.4v64z m0.5-288.8c0-70.7-57.3-127.9-128-127.9s-128 57.3-128 127.9c0 70.7 57.3 128 128 128s128-57.3 128-128z"  horiz-adv-x="1024" />

    
    <glyph glyph-name="shouye" unicode="&#59133;" d="M1014.00527 389L535.10527 823.4c-6.3 5.8-14.5 8.6-22.7 8.6h-0.8c-8.2 0-16.4-2.9-22.7-8.6L10.00527 389c-13-11.8-13.4-31.3-0.8-43.5s33.3-12.6 46.4-0.8l65.8 59.6V25c0-49 42.5-88.9 94.7-88.9h167.7c16.4 1.7 29.2 14.7 29.2 30.6v0.2V21.700000000000045c0 1.1-0.1 2.2-0.2 3.2V183.10000000000002h211c17.1 0 30.9 13 30.9 29.1 0 16-13.9 29.1-30.9 29.1H378.10527c-17.1 0-30.9-13-30.9-29.1v-214.5H216.00527c-16 0-29.1 12.2-29.1 27.3V463.9L512.00527 758.7l305.5-277.1h-0.7v-456.5c0-15.1-13-27.3-29.1-27.3H663.60527v-0.2h-6.8c-18.1 0-32.8-13.8-32.8-30.8s14.7-30.8 32.8-30.8h94.5c1.2 0 2.4 0.1 3.6 0.2h32.9c52.2 0 94.7 39.9 94.7 88.9V422.7l86-78c13-11.8 33.8-11.5 46.4 0.8 12.5 12.2 12.1 31.7-0.9 43.5"  horiz-adv-x="1024" />

    
    <glyph glyph-name="mima" unicode="&#58883;" d="M512 777.6c130.4 0 240-104.8 240-224.8v-75.2h-480v75.2c0 120 109.6 224.8 240 224.8m0 37.6c-159.2 0-280-115.2-280-262.4v-112.8h560.8v112.8c-0.8 146.4-121.6 262.4-280.8 262.4z m340-375.2V103.2c0-55.2-60-112.8-120-112.8h-440c-60 0-120 57.6-120 112.8v337.6l680-0.8m40 37.6h-760.8V103.2c0-83.2 72.8-150.4 163.2-150.4h434.4c90.4 0 163.2 66.4 163.2 150.4v377.6-3.2z m-371.2-174.4c14.4 0 27.2-12 27.2-24.8v-100c0-13.6-12.8-24.8-27.2-24.8-14.4 0-27.2 12-27.2 24.8v100c0 13.6 12.8 24.8 27.2 24.8z"  horiz-adv-x="1024" />

    
    <glyph glyph-name="yanzhengma" unicode="&#59159;" d="M674.1504 501.4528l-218.368-218.368-0.0512-0.1024a9.216 9.216 0 0 0-13.1072 0.1024l-100.7616 100.7616a24.2688 24.2688 0 0 1-34.304-34.304l100.7616-100.7616c10.9568-10.9568 25.4976-16.9984 40.96-16.9984 15.4624 0 30.0032 6.0416 40.9088 17.0496l218.2656 218.3168a24.2176 24.2176 0 1 1-34.304 34.304M889.2416 322.7648c0-86.784-54.5792-186.7264-149.76-274.1248-81.152-74.5472-178.432-125.4912-245.504-129.2288-67.0208 3.7376-164.3008 54.6816-245.4528 129.2288C153.344 136.0896 98.7648 236.032 98.7648 322.7648V713.2672l19.0976 0.3072c6.8608 0.1536 102.7584 3.072 201.6256 41.728 101.888 39.7824 167.68 85.2992 170.4448 87.2448l4.096 2.816 4.0448-2.816c2.7136-1.8944 68.5568-47.4624 170.4448-87.2448a651.264 651.264 0 0 1 201.6256-41.728l19.0976-0.3072v-390.5024z m5.8368 437.5552l-24.1664 0.4096h-0.1024c-2.1504 0.0512-92.3136 2.2016-184.9856 38.4512C589.2608 836.9152 525.9776 880.7424 525.312 881.152l-14.336 10.0352a23.7568 23.7568 0 0 1-16.9472 3.9936 23.7056 23.7056 0 0 1-16.9984-3.9936l-14.336-9.984c-0.5632-0.4096-63.8976-44.2368-160.512-81.92-92.672-36.3008-182.784-38.4512-184.9856-38.5024h-0.1024L92.8256 760.32A41.984 41.984 0 0 1 51.3536 719.2064v-396.3904c0-53.248 16.384-109.1584 48.7936-165.9904 28.16-49.4592 68.352-98.816 116.224-142.848 84.8896-77.9264 184.5248-130.9696 261.5808-140.4416 2.6624-1.024 5.4784-1.536 8.3456-1.536l7.7312 0.1536a179.2 179.2 0 0 1 7.68-0.1536 23.9616 23.9616 0 0 1 8.3968 1.536c77.056 9.5232 176.6912 62.464 261.5808 140.4416 47.872 44.032 88.064 93.3888 116.224 142.848 32.4096 56.832 48.7936 112.64 48.7936 165.9904V719.1552a42.0864 42.0864 0 0 1-41.6256 41.1648z"  horiz-adv-x="1024" />

    
    <glyph glyph-name="jiantou" unicode="&#59412;" d="M561.477 354.799c16.249 16.642 16.249 43.628 0 60.272L265.442 719.013c-16.25 16.643-42.596 16.642-58.845 0s-16.25-43.629 0-60.272l266.682-273.807-266.682-273.807c-16.25-16.645-16.25-43.631 0-60.275 16.249-16.643 42.596-16.642 58.845 0l296.034 303.943z m-98.183 303.942l266.682-273.807-266.682-273.807c-16.25-16.645-16.25-43.631 0-60.275 16.25-16.643 42.596-16.642 58.845 0l296.034 303.944c16.249 16.642 16.249 43.628 0 60.272L522.138 719.01c-16.249 16.643-42.596 16.642-58.845 0-16.249-16.644-16.25-43.631 0-60.272z"  horiz-adv-x="1024" />

    
    <glyph glyph-name="yanzheng" unicode="&#59063;" d="M511.488-128C362.268444-128 85.333333 100.465778 85.333333 316.586667v430.648889l42.439111 0.568888c0.967111 0 95.573333 2.048 193.137778 41.699556C420.977778 830.122667 485.432889 876.942222 486.4 877.454222L512 896l25.6-18.545778c0.455111-0.512 65.365333-47.331556 165.546667-87.950222 97.564444-39.651556 192.113778-41.699556 193.080889-41.699556l42.439111-0.568888v-430.648889C938.154667 100.465778 660.707556-128 511.488-128z m359.196444 755.882667h-86.357333L482.872889 328.419556 342.357333 443.733333H218.680889l264.192-280.462222 387.811555 464.668445z"  horiz-adv-x="1024" />

    
    <glyph glyph-name="yingyezhizhao" unicode="&#58955;" d="M786.437632 368.128a97.792 97.792 0 1 1-72.704 0 141.824 141.824 0 0 1-102.4-137.216 8.704 8.704 0 0 1 8.704-8.704 8.704 8.704 0 0 1 9.216 8.704 124.928 124.928 0 1 0 249.344 0 8.704 8.704 0 0 1 8.704-8.704 8.704 8.704 0 0 1 9.216 8.704 142.848 142.848 0 0 1-110.08 137.216z m-117.76 90.624a80.384 80.384 0 1 0 80.384-80.384 79.872 79.872 0 0 0-80.384 80.384zM885.253632 214.528A15.872 15.872 0 0 0 870.405632 230.4a118.272 118.272 0 1 1-236.544 0 15.36 15.36 0 0 0-15.36-15.36 15.872 15.872 0 0 0-15.36 15.36 148.992 148.992 0 0 0 93.696 138.24 105.984 105.984 0 0 0-51.2 90.624 102.4 102.4 0 1 0 159.744-89.088A148.48 148.48 0 0 0 900.613632 230.4a15.36 15.36 0 0 0-15.36-15.872z m-133.632 146.432A131.584 131.584 0 0 0 883.205632 230.4c0-2.56 4.608-2.56 4.608 0a135.68 135.68 0 0 1-102.4 132.096l-17.408 4.096 17.92 7.68a91.648 91.648 0 1 1-126.464 84.48A92.672 92.672 0 0 1 716.805632 373.248l18.432-7.168-18.944-5.12A136.704 136.704 0 0 1 614.405632 230.4c0-2.56 4.608-2.56 4.608 0a131.072 131.072 0 0 0 132.608 130.56z m0 11.264a86.528 86.528 0 1 0 86.528 86.528 86.528 86.528 0 0 0-89.088-86.528z m0 160.256a73.728 73.728 0 1 1 73.728-73.728 73.728 73.728 0 0 1-76.288 73.728zM930.821632 33.792H93.189632A93.184 93.184 0 0 0 0.005632 128V640a93.184 93.184 0 0 0 93.184 94.208h837.632A93.184 93.184 0 0 0 1024.005632 640v-512a93.184 93.184 0 0 0-93.184-94.208zM93.189632 695.296A54.272 54.272 0 0 1 38.917632 640v-512a54.272 54.272 0 0 1 54.272-54.272h837.632A54.272 54.272 0 0 1 985.093632 128V640a54.272 54.272 0 0 1-54.272 54.272zM512.005632 500.736H136.197632a19.456 19.456 0 1 0 0 38.912H512.005632a19.456 19.456 0 0 0 0-38.912zM512.005632 357.888H136.197632a19.456 19.456 0 0 0 0 38.912H512.005632a19.456 19.456 0 1 0 0-38.912zM512.005632 215.552H136.197632a19.456 19.456 0 0 0 0 38.912H512.005632a19.456 19.456 0 1 0 0-38.912z"  horiz-adv-x="1024" />

    
    <glyph glyph-name="zhanghao" unicode="&#59024;" d="M205.8 410.5c-2.7 0-4.9-0.4-6.6-1.1 2.3 0.7 4.8 1.1 7.3 1.1h-0.7z m758.7-302.3c0.1 1.4 0.3 2.8 0.6 4.1-0.3-0.6-0.5-1.9-0.6-4.1z m50.6 558.4V667.5c0.1-0.3 0.1-0.6 0-0.9z m-50.6 0.1v0.7-0.7zM995-92.8c-7.1 53-22.7 104.3-46.3 152.2-4.6 9.4-9.5 18.6-14.7 27.6 0 0 0 0.1-0.1 0.1-22.5 38-50 73.4-82.2 104.9-7 6.9-14.2 13.5-21.6 20-52.8 46.3-113.8 80.6-178.8 101.5 11.8 6.5 23.2 13.8 34.1 21.9 12.5 9.2 24.3 19.4 35.5 30.5 58.6 58.6 90.9 136.6 90.9 219.5s-32.2 161-90.8 219.7C663.4 862.6 587.2 894.8 506 896h-7.8c-81.2-1.2-157.4-33.3-215-90.9-58.6-58.6-90.9-136.6-90.9-219.5s32.3-160.9 90.9-219.5c11.1-11.1 23-21.3 35.5-30.5 10.9-8.1 22.3-15.4 34.1-21.9-65-20.9-126-55.2-178.8-101.5-7.4-6.5-14.6-13.2-21.6-20-32.2-31.6-59.7-66.9-82.2-105-5.2-9-10.1-18.3-14.7-27.6-23.6-48-39.2-99.2-46.3-152.2-2.3-17 9.6-32.6 26.6-34.9 1.4-0.2 2.8-0.3 4.2-0.3 1.3 0 2.5 0.1 3.7 0.2 12.3 2.7 22.2 12.7 24.1 25.9 14.3 98.2 61.1 187.4 128.4 255.4C276 234.1 384.7 284.8 502.1 285h0.7c117.1-0.4 225.5-51 305.2-131.6 67.3-68 114.1-157.2 128.4-255.4 1.9-13.1 11.8-23.1 24.1-25.8h0.1c1.2-0.2 2.5-0.2 3.7-0.2 1.4 0 2.8 0.1 4.2 0.3 16.9 2.3 28.8 17.9 26.5 34.9z m-493.6 430h-1.9c-115.9 0.8-219.2 81.4-247.4 189.3l-0.9 3.6c-4.4 17.8-6.8 36.4-6.8 55.5s2.4 37.8 6.8 56l0.9 3.6C280.5 755.8 384.8 843.8 501.4 843.8h1.3c116.6 0 220.9-88 249.3-198.7l0.9-3.6c4.4-18.2 6.8-36.9 6.8-56s-2.4-37.6-6.8-55.5l-0.9-3.6c-28.2-108-131.5-188.5-247.4-189.3-1 0.1-2.1 0.1-3.2 0.1z"  horiz-adv-x="1024" />

    
    <glyph glyph-name="meitiguanli" unicode="&#58902;" d="M592 560H176c-52.928 0-96-43.072-96-96v-416c0-52.928 43.072-96 96-96h416c52.928 0 96 43.072 96 96V464c0 52.928-43.072 96-96 96z m32-512a32 32 0 0 0-32-32H176c-17.632 0-32 14.336-32 32V464c0 17.632 14.368 32 32 32h416c17.664 0 32-14.368 32-32v-416zM720 688H304a32 32 0 0 1 0-64h416c17.664 0 32-14.368 32-32v-416a32 32 0 1 1 64 0V592c0 52.928-43.072 96-96 96zM528 144H240a32 32 0 1 1 0-64h288a32 32 0 1 1 0 64zM848 816H432a32 32 0 0 1 0-64h416c17.664 0 32-14.368 32-32v-416a32 32 0 1 1 64 0V720c0 52.928-43.072 96-96 96z"  horiz-adv-x="1024" />

    
    <glyph glyph-name="tixian" unicode="&#58933;" d="M902.8 832H121.2C89.7 832 64 806.4 64 774.8v-186.1c0-31.5 25.7-57.2 57.2-57.2h24c-28.7-57-43.8-120.3-43.8-184.6 0-55.4 10.9-109.2 32.3-159.9 20.7-48.9 50.3-92.8 88-130.6s81.6-67.3 130.6-88c50.7-21.4 104.5-32.3 159.9-32.3s109.2 10.9 159.9 32.3c48.9 20.7 92.8 50.3 130.6 88S870 138 890.7 187c21.4 50.7 32.3 104.5 32.3 159.9 0 64.3-15.1 127.6-43.8 184.6h23.5c31.5 0 57.2 25.7 57.2 57.2V774.8C960 806.4 934.4 832 902.8 832z m-781.6-40h781.6c9.5 0 17.2-7.7 17.2-17.2v-73H104v73c0 9.5 7.7 17.2 17.2 17.2zM104 588.7v73h144.5c-30.9-26-58-56.4-80.2-90.3h-47.1c-9.5 0.1-17.2 7.8-17.2 17.3z m408.3-612.6c-204.5 0-370.8 166.3-370.8 370.8 0 127.6 66.8 247.5 175 314.9h391.7c109.7-68.3 174.9-185.6 174.9-314.9 0-204.5-166.4-370.8-370.8-370.8z m390.5 595.4h-46.6C834 605.4 807 635.8 776 661.8h144v-73c0-9.6-7.7-17.3-17.2-17.3zM625.5 396.2h-81.8l89 89c7.8 7.8 7.8 20.5 0 28.3s-20.5 7.8-28.3 0L513.9 423l-91.3 91.3c-7.8 7.8-20.5 7.8-28.3 0-7.8-7.8-7.8-20.5 0-28.3l89.8-89.8h-78.7c-11 0-20-9-20-20s9-20 20-20h89.4v-53h-89.4c-11 0-20-9-20-20s9-20 20-20h89.4v-112.4c0-11.9 9-21.6 20-21.6s20 9.7 20 21.6V263.1h90.6c11 0 20 9 20 20s-9 20-20 20h-90.6v53h90.6c11 0 20 9 20 20 0.1 11.1-8.9 20.1-19.9 20.1z"  horiz-adv-x="1024" />

    
    <glyph glyph-name="shibai" unicode="&#58952;" d="M512 384m-483.555556 0a483.555556 483.555556 0 1 1 967.111112 0 483.555556 483.555556 0 1 1-967.111112 0ZM369.777778 566.044444l324.266666-324.266666c11.377778-11.377778 11.377778-28.444444 0-39.822222-11.377778-11.377778-28.444444-11.377778-39.822222 0L329.955556 526.222222c-11.377778 11.377778-11.377778 28.444444 0 39.822222 11.377778 11.377778 28.444444 11.377778 39.822222 0zM329.955556 241.777778l324.266666 324.266666c11.377778 11.377778 28.444444 11.377778 39.822222 0 11.377778-11.377778 11.377778-28.444444 0-39.822222l-324.266666-324.266666c-11.377778-11.377778-28.444444-11.377778-39.822222 0-11.377778 11.377778-11.377778 28.444444 0 39.822222z"  horiz-adv-x="1024" />

    
    <glyph glyph-name="liebiao" unicode="&#58881;" d="M897.427 646.997H126.572c-34.674 0-62.732 28.089-62.732 62.732s28.058 62.731 62.732 62.731h770.855c34.674 0 62.732-28.088 62.732-62.731s-28.057-62.732-62.732-62.732zM897.427 321.268H126.572c-34.674 0-62.732 28.089-62.732 62.732s28.058 62.732 62.732 62.732h770.855c34.674 0 62.732-28.089 62.732-62.732s-28.057-62.732-62.732-62.732zM897.427-4.46H126.572c-34.674 0-62.732 28.088-62.732 62.731s28.058 62.732 62.732 62.732h770.855c34.674 0 62.732-28.089 62.732-62.732 0.001-34.643-28.057-62.731-62.732-62.731z"  horiz-adv-x="1024" />

    
    <glyph glyph-name="guanbi" unicode="&#58882;" d="M512 474.51L149.59 836.92c-24.279 24.278-65.145 24.622-90.138-0.372-25.168-25.167-25.16-65.35-0.371-90.138L421.49 384 59.08 21.59c-24.28-24.279-24.623-65.145 0.37-90.138 25.169-25.168 65.35-25.16 90.14-0.371L512 293.49l362.41-362.41c24.279-24.28 65.145-24.623 90.138 0.37 25.168 25.168 25.16 65.35 0.371 90.14L602.51 384l362.41 362.41c24.28 24.279 24.623 65.145-0.37 90.138-25.169 25.168-65.35 25.16-90.14 0.371L512 474.51z"  horiz-adv-x="1024" />

    
    <glyph glyph-name="icon_kl-fanhui-copy" unicode="&#59183;" d="M645.143904 380.923942c0-98.081853-79.490425-177.578418-177.574324-177.578418-98.061386 0-177.574325 79.497589-177.574325 177.578418s79.512938 177.579441 177.574325 177.579441c98.083899 0 177.574325-79.497589 177.574324-177.579441zM645.143904 42.28531499999997a8.238638 8.238638 0 0 0-5.838985 2.420119L302.39875 380.923942 639.304919 717.143473c3.232624 3.225461 8.454556 3.225461 11.678994 0 3.232624-3.226484 3.232624-8.469905 0-11.680017L325.786413 380.923942l325.1975-324.538491c3.232624-3.210112 3.232624-8.453533 0-11.678994a8.208962 8.208962 0 0 0-5.840009-2.421142z"  horiz-adv-x="1024" />

    


  </font>
</defs>
</svg>
