<?xml version="1.0" standalone="no"?>
<!DOCTYPE svg PUBLIC "-//W3C//DTD SVG 1.1//EN" "http://www.w3.org/Graphics/SVG/1.1/DTD/svg11.dtd" >
<!--
2013-9-30: Created.
-->
<svg>
<metadata>
Created by iconfont
</metadata>
<defs>

<font id="iconfont" horiz-adv-x="1024" >
  <font-face
    font-family="iconfont"
    font-weight="500"
    font-stretch="normal"
    units-per-em="1024"
    ascent="896"
    descent="-128"
  />
    <missing-glyph />
    
    <glyph glyph-name="rili" unicode="&#58880;" d="M938.688 716l-138.624 0 0 64c0 17.664-14.4 32-32.128 32-17.6 0-32-14.272-32-32l0-64L544 716l0 64C544 797.728 529.664 812 512 812 494.272 812 480 797.728 480 780l0-64-192 0 0 64C288 797.728 273.664 812 256 812 238.336 812 223.936 797.728 223.936 780l0-64L85.312 716C38.272 716 0 677.792 0 630.688l0-757.376C0-173.728 38.272-212 85.312-212l853.376 0C985.728-212 1024-173.728 1024-126.688L1024 630.688C1024 677.792 985.728 716 938.688 716zM960-126.688C960-138.464 950.464-148 938.688-148L85.312-148C73.536-148 64-138.464 64-126.688L64 630.688C64 642.464 73.536 652 85.312 652l138.624 0 0-64C223.936 570.336 238.336 556 256 556c17.6 0 32 14.4 32 32.064l0 64 192 0 0-64C480 570.336 494.272 556 512 556c17.664 0 32 14.4 32 32.064l0 64 191.936 0 0-64c0-17.728 14.4-32.064 32-32.064 17.728 0 32.128 14.4 32.128 32.064l0 64 138.624 0C950.464 652 960 642.464 960 630.688L960-126.688zM223.936 332 223.936 428 352 428 352 332 223.936 332ZM223.936 172 223.936 268 352 268 352 172 223.936 172ZM223.936 12.064 223.936 108.064 352 108.064 352 12.064 223.936 12.064ZM448 12.064 448 108.064 576 108.064 576 12.064 448 12.064ZM448 172 448 268 576 268 576 172 448 172ZM448 332 448 428 576 428 576 332 448 332ZM672 172 672 268 800.064 268 800.064 172 672 172ZM672 332 672 428 800.064 428 800.064 332 672 332Z"  horiz-adv-x="1024" />

    
    <glyph glyph-name="zhucedengluyanzhengma" unicode="&#58920;" d="M512-161.47489l-7.959218 2.896774c-152.172297 55.387882-275.543755 165.759182-347.38765 310.784259-71.535684 144.400463-85.033485 308.712794-38.007236 462.669848l5.021485 16.43963 17.19019 0.033791c130.214563 0.253941 253.541991 43.009266 356.648317 123.645879l14.356901 11.227688 14.341542-11.249192c102.785827-80.621254 226.212579-123.36941 356.939121-123.624376l17.19019-0.033791 5.020461-16.43963c47.027273-153.957054 33.528448-318.269385-38.006212-462.669848C795.502973 7.181066 672.131514-103.190234 519.960242-158.578116L512-161.47489zM158.461441 585.081915C79.306493 296.749961 231.908852-5.361383 512-111.879533c280.092172 106.519174 432.693507 408.62847 353.538559 696.9594-65.102162 1.911728-128.931545 13.780413-189.993172 35.348019-58.607202 20.701339-113.600861 49.931215-163.722532 86.997434-50.193348-37.029357-105.139904-66.235682-163.580202-86.923709C287.200482 598.893046 223.43868 587.00081 158.461441 585.081915zM469.433084 131.280558c-5.956358 0-11.910668 2.272161-16.456013 6.816482L321.346375 269.727735c-9.087618 9.087618-9.087618 23.823383 0 32.911002 9.088642 9.087618 23.823383 9.087618 32.912026 0L469.434108 187.463031l246.851456 246.828929c9.088642 9.088642 23.823383 9.087618 32.912026-0.001024 9.087618-9.088642 9.087618-23.823383-0.001024-32.911002L485.888073 138.096016C481.343752 133.552719 475.387394 131.280558 469.433084 131.280558z"  horiz-adv-x="1024" />

    
    <glyph glyph-name="zhucedenglumima" unicode="&#58921;" d="M791.261743 439.629848 325.827211 439.629848l0 93.08793c0 102.656808 83.517004 186.173813 186.173813 186.173813 102.656808 0 186.173813-83.517004 186.173813-186.173813 0-12.852708 10.419786-23.271471 23.272495-23.271471s23.272495 10.418762 23.272495 23.271471c0 62.162381-24.207367 120.603703-68.159697 164.557057-43.954378 43.953354-102.394675 68.159697-164.558081 68.159697s-120.603703-24.206343-164.558081-68.159697-68.159697-102.394675-68.159697-164.557057l0-93.08793-46.543965 0c-76.99235 0-139.630872-62.637497-139.630872-139.629848l0-325.804684c0-76.991326 62.638521-139.629848 139.630872-139.629848l558.522462 0c76.99235 0 139.630872 62.638521 139.630872 139.629848L930.893638 300C930.892615 376.991326 868.254093 439.629848 791.261743 439.629848zM884.348649-25.805708c0-51.327892-41.75799-93.085882-93.086906-93.085882L232.739281-118.891591c-51.327892 0-93.086906 41.75799-93.086906 93.085882L139.652375 300c0 51.327892 41.759014 93.086906 93.086906 93.086906l558.522462 0c51.328916 0 93.086906-41.759014 93.086906-93.086906L884.348649-25.805708zM512.001024 300c-64.160121 0-116.359401-52.198256-116.359401-116.358377 0-56.23367 40.098156-103.275278 93.202613-114.042186-0.075773-0.761824-0.115707-1.534912-0.115707-2.317215l0-69.815436c0-12.852708 10.418762-23.272495 23.271471-23.272495 12.852708 0 23.271471 10.419786 23.271471 23.272495l0 69.815436c0 0.782303-0.039934 1.555391-0.114683 2.318239 53.103434 10.765884 93.20159 57.807492 93.20159 114.041162C628.359401 247.80072 576.160121 300 512.001024 300zM512.001024 113.826187c-38.496687 0-69.815436 31.318749-69.815436 69.815436s31.318749 69.815436 69.815436 69.815436c38.495663 0 69.814412-31.318749 69.814412-69.815436S550.496687 113.826187 512.001024 113.826187z"  horiz-adv-x="1024" />

    
    <glyph glyph-name="zhucedengluyonghuming" unicode="&#58922;" d="M928.382896 20.478172c-16.965943 46.689367-41.579822 89.948478-73.155583 128.575208-51.760002 63.320477-120.315971 111.082951-196.762552 137.862498 12.559856 8.716946 24.437758 18.60837 35.477038 29.648675 48.352273 48.351249 74.981299 112.635269 74.981299 181.013069 0 68.3778-26.629026 132.662844-74.981299 181.013069-48.351249 48.349201-112.634245 74.976179-181.00795 74.976179-68.3778 0-132.662844-26.626978-181.012045-74.976179s-74.976179-112.634245-74.976179-181.013069c0-68.3778 26.626978-132.662844 74.976179-181.012045 10.997298-10.997298 22.827073-20.858004 35.334708-29.549351-76.436342-26.701727-144.996406-74.372044-196.810678-137.613676-31.667918-38.653353-56.356545-81.956494-73.376758-128.70525-17.616156-48.38504-26.548133-99.258295-26.548133-151.205681 0-12.852708 10.419786-23.272495 23.272495-23.272495s23.271471 10.419786 23.271471 23.272495c0 184.927657 130.697871 347.138828 311.032057 386.437274 26.902422-9.421428 55.490277-14.340518 84.837909-14.340518 29.29541 0 57.834115 4.902706 84.696603 14.293416 180.095604-39.415177 310.672648-201.692905 310.672648-386.391196 0-12.852708 10.419786-23.272495 23.272495-23.272495s23.272495 10.419786 23.272495 23.272495C954.847064-78.641889 945.942734-27.842359 928.382896 20.478172zM303.487542 497.576598c0 115.489037 93.95727 209.446307 209.445283 209.446307 115.488014 0 209.445283-93.95727 209.445283-209.446307 0-115.489037-93.95727-209.445283-209.445283-209.445283C397.444811 288.131314 303.487542 382.08756 303.487542 497.576598z"  horiz-adv-x="1024" />

    
    <glyph glyph-name="gouxuan" unicode="&#58937;" d="M413.294642 57.972405c-8.935049 0-17.866002 3.407729-24.682483 10.224211L125.306737 331.501013c-13.631939 13.631939-13.631939 35.734051 0 49.365991 13.631939 13.631939 35.734051 13.631939 49.365991 0l238.621914-238.621914 436.077685 436.055158c13.630916 13.630916 35.733027 13.631939 49.365991-0.001024 13.631939-13.631939 13.631939-35.734051-0.001024-49.365991l-460.760168-460.737641C431.161667 61.381158 422.226618 57.972405 413.294642 57.972405z"  horiz-adv-x="1024" />

    
    <glyph glyph-name="user" unicode="&#58927;" d="M947.923862-151.760552c0-21.751172-17.619862-39.371034-39.353379-39.371034-21.751172 0-39.371034 17.619862-39.371034 39.371034l-0.353103 3.654621c0 1.553655 0.282483 3.054345 0.441379 4.590345-24.576 172.791172-172.720552 299.767172-353.103448 301.762207-1.447724-0.03531-2.824828-0.229517-4.290207-0.229517-1.430069 0-2.807172 0.194207-4.237241 0.229517-178.317241-1.977379-325.049379-126.146207-352.097103-295.936 0.900414-3.336828 1.536-6.779586 1.536-10.398897l0.370759-3.707586c0-22.086621-17.902345-39.988966-39.97131-39.988966s-39.988966 17.902345-39.988966 39.988966l-0.03531 0.353103L76.711724-151.442759c0.105931 1.165241 0.335448 2.277517 0.459034 3.425103 0 3.301517 0.529655 6.426483 1.271172 9.498483 20.497655 159.302621 127.240828 288.097103 272.525241 343.569655-84.585931 54.201379-139.74069 149.963034-139.74069 259.372138 0 169.224828 131.478069 306.405517 300.702897 306.405517 169.207172 0 300.702897-137.18069 300.702897-306.405517 0-109.373793-55.101793-205.117793-139.652414-259.319172 144.278069-55.031172 250.544552-182.324966 272.189793-340.038621 1.465379-4.13131 2.436414-8.527448 2.436414-13.170759L947.923862-151.760552zM743.494621 464.334345c0 127.947034-103.706483 231.653517-231.653517 231.653517s-231.653517-103.724138-231.653517-231.653517c0-127.929379 103.724138-231.635862 231.653517-231.635862S743.494621 336.404966 743.494621 464.334345z"  horiz-adv-x="1024" />

    
    <glyph glyph-name="quanxianfuzhi" unicode="&#58926;" d="M74.928386 18.470594l874.143197 0L512.002417 748.960173 74.928386 18.470594zM74.928386 18.470594"  horiz-adv-x="1024" />

    
    <glyph glyph-name="adds" unicode="&#58924;" d="M811.244 421.728h-267.747v261.519c0 17.396-14.102 31.499-31.498 31.499s-31.5-14.104-31.5-31.499v-261.519h-267.743c-17.396 0-31.499-14.103-31.499-31.497 0-17.397 14.104-31.5 31.499-31.5h267.744v-273.978c0-17.38 14.104-31.5 31.5-31.5s31.498 14.121 31.498 31.5l-0 273.978h267.746c17.396 0 31.498 14.103 31.498 31.5 0 17.394-14.102 31.497-31.498 31.497z"  horiz-adv-x="1024" />

    
    <glyph glyph-name="more" unicode="&#58935;" d="M147.012 465.109c-44.791 0-81.108-36.304-81.108-81.109 0-44.779 36.316-81.108 81.108-81.108 44.792 0 81.109 36.329 81.109 81.108 0 44.805-36.316 81.109-81.109 81.109zM511.999 465.109c-44.791 0-81.108-36.304-81.108-81.109 0-44.779 36.316-81.108 81.108-81.108 44.792 0 81.109 36.329 81.109 81.108 0 44.805-36.317 81.109-81.109 81.109zM876.987 465.109c-44.791 0-81.108-36.304-81.108-81.109 0-44.779 36.316-81.108 81.108-81.108s81.108 36.329 81.108 81.108c-0.001 44.805-36.317 81.109-81.108 81.109z"  horiz-adv-x="1024" />

    
    <glyph glyph-name="bangding" unicode="&#59144;" d="M512-66c-247.5 0-450 202.5-450 450s202.5 450 450 450 450-202.5 450-450S759.5-66 512-66zM512 783.375C292.625 783.375 112.625 603.375 112.625 384s180-399.375 399.375-399.375 399.375 180 399.375 399.375S731.375 783.375 512 783.375zM140.75 378.375l0 11.25c0 61.875 50.625 112.5 112.5 112.5l303.75 0c61.875 0 112.5-50.625 112.5-112.5l0-11.25c0 0 0-5.625 0-5.625L579.5 372.75c0 0 0 5.625 0 5.625l0 11.25c0 16.875-11.25 28.125-28.125 28.125L545.75 417.75 472.625 417.75 365.75 417.75l-112.5 0c-16.875 0-28.125-11.25-28.125-28.125l0-11.25c0-16.875 11.25-28.125 28.125-28.125l90 0C343.25 316.5 360.125 288.375 388.25 265.875L253.25 265.875C191.375 265.875 140.75 316.5 140.75 378.375zM360.125 378.375L360.125 389.625c0 0 0 5.625 0 5.625l84.375 0c0 0 0-5.625 0-5.625l0-11.25c0-16.875 11.25-28.125 28.125-28.125l33.75 0 50.625 0 106.875 0 112.5 0c16.875 0 28.125 11.25 28.125 28.125l0 11.25c0 16.875-11.25 28.125-28.125 28.125L680.75 417.75c0 33.75-16.875 61.875-39.375 84.375l135 0c61.875 0 112.5-50.625 112.5-112.5l0-11.25c0-61.875-50.625-112.5-112.5-112.5l-303.75 0C410.75 265.875 360.125 316.5 360.125 378.375z"  horiz-adv-x="1024" />

    
    <glyph glyph-name="xia" unicode="&#58892;" d="M493.73375 151.99031249999996l-421.936875 421.936875c-9.695625 9.613125-9.695625 25.425 0 35.14125 9.71625 9.675 25.5065625 9.675 35.161875 0l405.04125-405.061875 405.061875 405.04125c9.695625 9.675 25.425 9.675 35.161875 0 9.695625-9.71625 9.695625-25.5271875 0-35.14125l-421.91625-421.91625c-5.011875-5.0315625-11.7-7.3021875-18.3065625-7.1184375-6.6065625-0.18375-13.254375 2.086875-18.26625 7.1184375z"  horiz-adv-x="1024" />

    
    <glyph glyph-name="youjian" unicode="&#58915;" d="M826.71125 8.792812499999968l-623.7196875 0c-75.226875 0-136.445625 61.2196875-136.445625 136.4259375l0 477.5625c0 75.2278125 61.2196875 136.4259375 136.445625 136.4259375l623.7196875 0c75.2475 0 136.445625-61.198125 136.445625-136.445625l0-477.5409375c0-75.2071875-61.198125-136.4259375-136.445625-136.4259375zM202.990625 720.2184374999999c-53.739375 0-97.45875-43.7184375-97.45875-97.45875l0-477.5409375c0-53.739375 43.74-97.45875 97.45875-97.45875l623.7196875 0c53.7609375 0 97.479375 43.7184375 97.479375 97.45875l0 477.5625c0 53.739375-43.7184375 97.45875-97.479375 97.45875l-623.7196875 0zM505.1196875 365.71500000000003c-3.84375 0-7.7071875 1.13625-10.99125 3.4096875l-345.991875 236.5490625c-8.88375 6.0740625-11.1571875 18.2025-5.1028125 27.0871875 6.0740625 8.8640625 18.2025 11.1365625 27.106875 5.1028125l335.289375-229.235625 354.545625 229.483125c9.0290625 5.8678125 21.1153125 3.264375 26.983125-5.7646875 5.8265625-9.04875 3.24375-21.1153125-5.7853125-26.9634375l-365.475-236.50875c-3.2240625-2.1075-6.9009375-3.16125-10.57875-3.16125z"  horiz-adv-x="1024" />

    
    <glyph glyph-name="shenhe2" unicode="&#58925;" d="M512 864c-264.676 0-480-215.346-480-480 0-264.676 215.324-480 480-480s480 215.324 480 480c0 264.654-215.324 480-480 480zM754.727 508.604l-275.411-276.393c-0.131-0.131-0.306-0.131-0.436-0.262-1.876-1.789-3.971-3.186-6.262-4.167-0.48-0.262-0.982-0.393-1.462-0.546-2.356-0.851-4.8-1.396-7.266-1.44-0.022 0-0.044 0-0.044 0l0 0-0.022 0c-2.487 0-4.974 0.589-7.353 1.44-0.72 0.262-1.374 0.633-2.073 0.982-0.96 0.458-1.942 0.764-2.858 1.374l-179.149 122.226c-9.971 6.829-12.524 20.378-5.738 30.349 6.807 9.927 20.378 12.502 30.327 5.716l164.16-111.993 262.669 263.586c8.487 8.531 22.276 8.574 30.851 0.044 8.553-8.553 8.596-22.364 0.066-30.916z"  horiz-adv-x="1026" />

    
    <glyph glyph-name="tianjia" unicode="&#58933;" d="M515.622-96c-264.676 0-480 215.324-480 480 0 264.654 215.324 480 480 480s480-215.346 480-480c0-264.676-215.324-480-480-480zM515.622 822.262c-241.658 0-438.262-196.604-438.262-438.262s196.604-438.284 438.262-438.284 438.262 196.626 438.262 438.284-196.604 438.262-438.262 438.262zM735.244 365.673c-3.774-3.753-8.967-6.109-14.749-6.109l-408.698 0c-11.542 0-20.88 9.338-20.88 20.88 0 11.52 9.338 20.858 20.858 20.858l408.72 0c11.564 0.022 20.902-9.316 20.88-20.858 0.022-5.782-2.334-10.996-6.131-14.771zM530.371 159.818c-3.774-3.774-9.011-6.109-14.749-6.087-11.564-0.022-20.902 9.338-20.88 20.858l-0.022 418.8c0 11.52 9.338 20.858 20.88 20.858s20.88-9.338 20.858-20.858l0-418.8c0-5.76-2.313-11.018-6.087-14.771z"  horiz-adv-x="1028" />

    
    <glyph glyph-name="guanbi2" unicode="&#58962;" d="M512 864c-264.654 0-480-215.346-480-480s215.324-480 480-480c264.676 0 480 215.324 480 480 0 264.654-215.324 480-480 480zM671.774 250.713c8.16-8.182 8.16-21.382 0-29.542-4.08-4.102-9.404-6.087-14.771-6.087-5.324 0-10.647 2.007-14.749 6.087l-131.782 131.804-131.804-131.804c-4.08-4.102-9.426-6.131-14.771-6.131-5.324 0-10.669 2.051-14.749 6.131-8.16 8.138-8.16 21.36 0 29.498l131.804 131.804-127.724 127.724c-8.138 8.182-8.138 21.36 0 29.542 8.138 8.138 21.36 8.138 29.52 0l127.724-127.724 134.814 134.836c8.182 8.138 21.36 8.138 29.542 0 8.138-8.16 8.138-21.36 0-29.542l-134.836-134.836 131.782-131.76z"  horiz-adv-x="1026" />

    
    <glyph glyph-name="chazhao" unicode="&#58976;" d="M470.676-7.527c-238.124 0-431.847 193.724-431.847 431.826 0 238.146 193.724 431.869 431.847 431.869s431.847-193.724 431.847-431.869c0-238.102-193.702-431.826-431.847-431.826zM470.676 812.531c-214.058 0-388.211-174.153-388.211-388.233 0-214.058 174.153-388.189 388.211-388.189 214.08 0 388.211 174.131 388.211 388.189 0 214.08-174.131 388.233-388.211 388.233zM964.466-88.167c-5.346 0-10.713 1.964-14.946 5.913l-206.313 193.68c-8.771 8.247-9.229 22.08-0.982 30.851 8.269 8.771 22.08 9.186 30.851 0.982l206.313-193.68c8.771-8.247 9.229-22.08 0.982-30.851-4.276-4.582-10.08-6.894-15.906-6.894z"  horiz-adv-x="1024" />

    
    <glyph glyph-name="jigouxinxi" unicode="&#59007;" d="M891.77 47.75812499999995L135.8140625 47.75812499999995c-4.4109375 0-43.8234375 0.946875-69.49875 33.628125-23.3596875 29.728125-24.0346875 59.86875-24.0346875 63.2109375L42.280625 627.4790625l0.0609375 0.9140625c0.226875 3.3890625 2.814375 33.8765625 23.803125 61.1596875 24.0703125 31.2909375 65.07375 32.195625 69.6703125 32.195625l759.2653125 0c4.2140625 0 41.990625-1.029375 70.865625-36.571875 18.8203125-23.1675 22.48125-55.605 22.8421875-59.2265625l0.1359375-1.396875-0.009375-1.4034375-1.9453125-476.8134375c1.25625-10.884375 3.290625-48.365625-23.784375-73.190625C936.2684375 48.47531249999997 896.2465625 47.75812499999995 891.77 47.75812499999995zM136.0953125 99.85500000000002l755.5621875 0c5.953125 0.075 24.88125 1.265625 34.3453125 9.946875 7.5796875 6.946875 10.6640625 27.4640625 10.1859375 30.45l-0.3515625 2.2171875 0.009375 2.240625-0.009375 476.9428125c-0.84375 6.0346875-2.071875 20.6859375-8.690625 28.8253125-11.971875 14.739375-30.75 19.0659375-32.4984375 19.18125l-758.64375 0c-4.846875-0.12-22.715625-3.2925-29.1796875-11.6971875-9.6909375-12.5953125-12.0721875-29.7159375-12.4546875-32.7046875l0-480.3084375c0.0796875-1.5515625 1.1034375-17.3015625 12.2765625-31.51875C115.7234375 101.87531249999995 134.8109375 99.91125 136.0953125 99.85500000000002zM207.4859375 192.68156250000004l-37.0875 1.5328125c0.0815625 1.9640625 2.2190625 48.6703125 25.715625 95.8359375 22.40625 44.9765625 68.64375 98.5921875 161.6578125 98.5921875 91.4925 0 136.54875-53.7421875 158.2359375-98.821875 22.678125-47.146875 24.4359375-93.7875 24.496875-95.75625l-37.096875-1.2c-0.0140625 0.375-1.715625 41.690625-21.320625 81.825-24.8925 50.98125-66.7190625 76.828125-124.314375 76.828125-59.0409375 0-102.084375-25.9171875-127.940625-77.034375C209.545625 234.36749999999995 207.5046875 193.08937500000002 207.4859375 192.68156250000004zM355.44875 361.3884375c-61.014375 0-110.653125 49.633125-110.653125 110.645625 0 61.014375 49.6378125 110.653125 110.653125 110.653125 61.0125 0 110.6503125-49.6378125 110.6503125-110.653125C466.0990625 411.0225 416.463125 361.3884375 355.44875 361.3884375zM355.44875 545.5696875c-40.546875 0-73.5346875-32.9878125-73.5346875-73.5346875 0-40.5440625 32.9859375-73.5346875 73.5346875-73.5346875 40.5440625 0 73.5328125 32.9878125 73.5328125 73.5346875C428.9834375 512.5809375 395.995625 545.5696875 355.44875 545.5696875zM587.691875 572.09625l256.4053125 0 0-47.1628125L587.691875 524.9334375000001 587.691875 572.09625zM589.3840625 407.611875l256.400625 0 0-47.165625L589.3840625 360.44624999999996 589.3840625 407.611875zM625.960625 244.92843749999997l220.57875 0 0-47.165625L625.960625 197.7628125 625.960625 244.92843749999997z"  horiz-adv-x="1024" />

    
    <glyph glyph-name="vipdingyue" unicode="&#59032;" d="M759.804852 558.564781c0 150.237723-122.245182 272.533047-272.531 272.533047-150.281725 0-272.533047-122.241089-272.533047-272.533047 0-106.089224 61.053518-198.007703 149.747559-242.99736C201.070458 263.195633 66.093301 114.791675 66.093301-36.043658c0-13.674441 11.102872-24.777313 24.777313-24.777313 13.671371 0 24.77322 11.102872 24.77322 24.777313 0 159.554926 187.547467 322.082556 371.628996 322.082556C637.514645 286.042991 759.804852 408.279986 759.804852 558.564781L759.804852 558.564781 759.804852 558.564781 759.804852 558.564781zM487.272829 335.58943c-122.93182 0-222.971257 100.039437-222.971257 222.975351 0 122.93182 100.039437 222.981491 222.971257 222.981491 122.935913 0 222.980467-100.04967 222.980467-222.981491C710.253296 435.628868 610.208742 335.58943 487.272829 335.58943L487.272829 335.58943 487.272829 335.58943 487.272829 335.58943zM487.272829 335.58943M584.037686 1.333624l42.496883 146.870022c1.811252 6.119371 4.812609 10.650571 9.009188 13.598716 4.191462 2.943029 9.348925 4.191462 15.46932 3.739161 6.119371-0.679475 11.218506-3.006474 15.298428-6.969739 4.079922-3.968381 6.172583-8.218172 6.28924-12.749372 0.112564-4.535293-0.967024-10.42749-3.229554-17.678638l-50.315966-154.349367c-2.719948-7.93574-5.557576-14.166651-8.499581-18.697851-2.948145-4.536316-6.687306-8.786107-11.218506-12.749372-4.536316-3.967358-11.559267-5.726421-21.079084-5.269004-5.215792 0-10.597359 1.301645-16.148795 3.90903-5.556553 2.603291-9.976212 6.343475-13.258978 11.219529-3.287883 4.870938-6.28924 10.93198-9.009188 18.188244L476.604862 128.824273c-2.039449 4.982478-3.006474 9.742898-2.889817 14.279215 0.11154 4.530177 0.903579 8.329712 2.38021 11.388375 1.471514 3.059686 3.963265 5.721305 7.479345 7.988951 3.510964 2.263553 7.872295 3.400446 13.08911 3.400446 4.303003-0.229221 8.44023-1.589195 12.408611-4.079922 3.963265-2.495844 7.081279-6.575766 9.349949-12.238742l54.05615-145.850809 2.38021-7.138584c1.131777-3.628644 2.263553-5.328355 3.399423-5.099135 0.903579 0 1.86958 1.020236 2.89084 3.059686C582.168106-3.425773 583.128991-1.164267 584.037686 1.333624zM739.747028 142.083252l0-182.567036c0-5.215792-2.098801-10.146081-6.290263-14.788821-4.196579-4.647857-10.028401-6.857175-17.508769-6.628978-7.93574 0-13.886265 2.432399-17.848507 7.309476-3.968381 4.870938-5.949502 9.572006-5.949502 14.108323L692.149986 142.083252c0 5.439896 2.320858 10.140964 6.969739 14.109346 4.64274 3.962242 10.199293 6.002714 16.658402 6.119371 6.459109 0.11154 12.068873-1.927909 16.829294-6.119371C737.367841 151.996019 739.747028 147.29495 739.747028 142.083252zM801.961998 28.191318l0-71.734788c0-3.176342-1.418302-7.197936-4.249791-12.068873-2.836605-4.877077-8.499581-7.367805-16.999163-7.480368-8.498558-0.116657-14.507412 2.152013-18.018376 6.79987-3.517103 4.64274-5.269004 8.892531-5.269004 12.749372L757.425665 124.744351c0 6.570649 0.849344 12.462846 2.549056 17.678638 1.699712 5.210675 4.361331 9.519818 7.988951 12.919241 3.623527 3.399423 8.499581 5.949502 14.618952 7.650237 6.119371 1.698688 12.351306 2.549056 18.697851 2.549056l74.795497 0c5.439896 0 13.428847-0.679475 23.968901-2.039449s19.431561-3.798513 26.688849-7.309476c7.250124-3.517103 14.049994-9.806343 20.398586-18.868743 6.343475-9.06854 9.858532-19.495006 10.539031-31.278377 0.679475-11.787464-0.11768-21.986757-2.38021-30.597879-3.628644-13.375635-9.296737-23.458271-16.999163-30.257118-7.708566-6.79987-16.658402-11.336186-26.857694-13.599739-10.199293-2.26867-21.98778-3.399423-35.358299-3.399423L801.961998 28.191318zM801.961998 67.288778l82.614579 0c7.702426 0 13.482059 1.423419 17.337877 4.270257 3.850701 2.847861 6.570649 6.66684 8.159844 11.45796 1.583055 4.786003 2.38021 9.573029 2.38021 14.359033-0.229221 6.836709-1.816369 12.589736-4.759397 17.264199-2.949168 4.674463-6.630001 7.867178-11.04966 9.577123-4.419659 1.710968-8.66945 2.676969-12.749372 2.90619l-66.294892 0c-4.079922 0-7.256264-0.509606-9.519818-1.529843-2.26867-1.020236-3.855818-2.210341-4.759397-3.570315-0.908696-1.359974-1.359974-4.079922-1.359974-8.159844L801.961998 67.288778z"  horiz-adv-x="1024" />

    
    <glyph glyph-name="tongji5" unicode="&#59088;" d="M567.525736 448.522548c0 0 3.635073 447.477452 0 447.477452 255.727366 0 444.569393-190.114303 444.569393-447.477452C1012.095129 447.068519 567.525736 448.522548 567.525736 448.522548L567.525736 448.522548 567.525736 448.522548zM975.017387 356.736962c0-267.723106-215.559812-484.736947-481.647135-484.736947C227.464683-127.999985 11.904871 89.013857 11.904871 356.736962 11.904871 624.460068 227.464683 841.473909 493.370252 841.473909c12.541001 0 24.718494-0.908768 37.077742-1.817536l0-428.39332 441.661335 0C973.926866 394.178211 975.017387 374.367065 975.017387 356.736962L975.017387 356.736962 975.017387 356.736962zM935.576848 371.64076 493.370252 371.64076l0 432.573653c-245.549162 0-444.569393-200.292507-444.569393-447.477452s199.020231-447.477452 444.569393-447.477452c245.549162 0 444.569393 200.292507 444.569393 447.477452C937.939646 404.901676 935.576848 371.64076 935.576848 371.64076L935.576848 371.64076 935.576848 371.64076zM935.576848 371.64076"  horiz-adv-x="1024" />

    
    <glyph glyph-name="renzhengshibai" unicode="&#59302;" d="M510.669731 768.089537c-213.45698 0-383.424403-168.944139-383.424403-382.401119 0-213.45698 169.967423-386.494254 383.424403-386.494254 213.45698 0 385.47097 173.037274 385.47097 386.494254C896.140702 599.145398 724.126711 768.089537 510.669731 768.089537zM692.81423 239.972819c10.02818-10.02818 10.02818-26.400719 0-36.4289-10.02818-10.02818-26.400719-10.02818-36.4289 0L510.669731 349.361847 364.954132 203.543919c-10.02818-10.02818-26.400719-10.02818-36.4289 0-10.02818 10.02818-10.02818 26.400719 0 36.4289l145.715599 145.715599L328.525232 531.506346c-10.02818 10.02818-10.02818 26.400719 0 36.4289 10.02818 10.02818 26.400719 10.02818 36.4289 0l145.715599-145.715599 145.715599 145.715599c10.02818 10.02818 26.400719 10.02818 36.4289 0 10.02818-10.02818 10.02818-26.400719 0-36.4289L547.098631 385.790746 692.81423 239.972819z"  horiz-adv-x="1024" />

    
    <glyph glyph-name="jiantou32" unicode="&#59182;" d="M767.893 446.614l-250.773-250.667-250.667 250.667z"  horiz-adv-x="1024" />

    
    <glyph glyph-name="xiazaidownload140" unicode="&#58900;" d="M0 383.2832c0-101.632 76.0832-185.9584 176.0256-202.24l35.2256-2.816 196.1984 0 0 50.8416L213.6576 229.0688 190.3104 230.912c-67.4816 10.752-142.0288 90.7776-142.0288 156.2112 0 51.0976 43.5712 133.0176 127.744 162.0992L159.0784 593.4592C155.136 601.9584 153.1392 611.0208 153.1392 620.4416c0 36.7616 37.1712 91.392 95.488 91.392 20.0192 0 43.4688-9.984 56.8832-24.1664l55.04-38.2464 46.7968 62.4128c52.992 79.0016 142.3872 133.3248 243.2 133.3248 142.1824 0 282.5216-135.5264 284.7744-271.0016l0-48.0256 49.5104-13.2608c55.808-18.7904 93.2352-69.3248 93.2352-125.7472 0-65.3824-66.9696-147.3024-134.4512-158.0544l-30.976 0-192.4096 0 0-50.8416 194.8672 0 35.2256 2.816C1050.3168 197.3248 1126.4 281.6512 1126.4 383.2832c0 89.2928-58.7776 165.3248-140.8512 193.4336C982.5792 753.5616 833.9968 896 651.2128 896c-131.84 0-245.8624-74.0864-300.3392-181.76C325.12 741.888 287.8464 759.296 246.3744 759.296c-77.7728 0-140.8-61.2352-140.8-136.704 0-19.712 4.3008-38.4512 11.9808-55.3472C47.9232 533.7088 0 463.9232 0 383.2832zM537.7024 588.8 537.7024-64 307.2 76.8 307.2 25.6 563.2-128 819.2 25.6 819.2 76.8 588.8-64 588.8 588.8Z"  horiz-adv-x="1127" />

    
    <glyph glyph-name="ico-top1" unicode="&#58901;" d="M539.04873197 896l30.167601 0c-1.294053-14.477213 0.727905-16.256536 7.521681-21.675381 77.724034-61.710133 134.096201-146.955849 161.271306-252.744649-121.317431 0.647026-245.222968-1.294053-364.922834 0.970539 26.042809 94.061449 72.628702 173.483927 137.654846 231.958929 7.926072 7.117289 26.285443 18.44025 28.307401 25.476661C540.42366297 884.838796 537.83555797 894.625069 539.04873197 896L539.04873197 896zM366.45446597 593.272569l379.076534 0c8.734855-43.512519 17.065319-91.068952 15.12424-138.625385C758.71416197 407.576021 749.49403697 361.79891 740.84005997 321.68327899999997c-18.278493-84.841324-40.520022-165.719611-63.165943-242.392228L436.25242897 79.29105100000004c-25.719295 73.68012-46.424137 156.014217-65.107022 240.451149-17.631467 79.665113-30.24848 185.1304-5.66148 270.61875C365.40304897 591.8167599999999 365.40304897 593.110813 366.45446597 593.272569L366.45446597 593.272569zM482.43393097 478.263644c-16.660927-52.813522 19.976937-102.230156 73.518363-101.825764 21.998894 0.161757 45.291841 11.80823 57.504463 25.476661 44.806571 49.740147 6.793776 136.846063-65.107022 129.162625C512.27801897 527.1950079999999 490.84527297 504.791723 482.43393097 478.263644L482.43393097 478.263644zM191.99999997 295.316958L191.99999997 324.51401899999996C200.16870697 403.693863 251.12202797 445.265303 316.47168497 464.109944c10.514177-120.266014 35.101177-226.378327 68.827423-323.432272-25.638417-36.071716-54.188453-73.922755-51.842982-134.824106C253.71013297 69.66653499999995 200.97748997 160.57372999999995 191.99999997 295.316958L191.99999997 295.316958zM796.48432197 464.109944c47.556433-14.558092 83.628149-38.174552 104.656504-76.349104 22.160651-40.277387 21.513625-98.428876 11.32296-154.639286-9.058368-49.821025-27.013348-92.767396-49.982782-131.103704-22.888555-38.174552-50.306295-73.033094-83.951663-95.274623 1.698444 44.88745-14.558092 79.82687-34.858542 110.317984-5.418845 8.087829-16.418292 18.116736-16.98444 23.535582-0.808783 7.845194 8.815733 25.719295 12.2935 36.799621 26.851592 86.863281 47.556433 181.329121 56.614801 284.772451C795.19026897 464.029066 796.16080897 465.646631 796.48432197 464.109944L796.48432197 464.109944zM469.25076997 50.093988999999965l172.594266 0c-10.514177-20.947477-23.61646-39.22597-33.968881-60.335203-10.271543 6.712898-16.903562 17.065319-26.366322 24.506121-8.653977-27.741253-17.712345-55.23987-26.4472-82.981123-11.403839 26.93247-21.27099 55.401627-32.027802 82.981123-7.845194-13.506674-14.315457-28.388279-21.675381-42.461101C489.55121997-3.123923999999988 479.60319097 23.646789000000012 469.25076997 50.093988999999965L469.25076997 50.093988999999965zM469.25076997 50.093988999999965"  horiz-adv-x="1080" />

    
    <glyph glyph-name="shang" unicode="&#58912;" d="M937.165818 162.497187c8.93551 8.958022 7.868201 24.607444-2.312672 34.877345L531.191596 603.259726c-5.779633 5.846148-13.271258 8.581446-20.306488 8.314363-7.081279 0.331551-14.638395-2.423189-20.463054-8.270361L86.770737 197.374532c-10.225899-10.269901-11.248182-25.875321-2.322905-34.877345 8.946766-8.960069 24.451902-7.936763 34.666544 2.334161l391.68068 393.880789 391.691937-393.880789C912.712893 154.560424 928.228261 153.537118 937.165818 162.497187z"  horiz-adv-x="1024" />

    
    <glyph glyph-name="shouye" unicode="&#58923;" d="M940.8512 486.68672 518.77888 796.81536c-4.58752 3.3792-9.95328 4.89472-15.23712 4.75136-5.28384 0.14336-10.67008-1.37216-15.23712-4.75136L66.21184 486.68672c-10.91584-8.02816-13.23008-23.32672-5.18144-34.18112 8.04864-10.87488 23.42912-13.16864 34.34496-5.16096l58.04032 42.63936 0-442.44992c0-33.03424 27.11552-64.86016 65.16736-64.86016l177.19296 0c0 0 4.99712-0.16384 10.73152 2.62144 2.64192 1.20832 5.36576 2.99008 7.61856 5.59104 6.22592 6.61504 6.22592 15.54432 6.22592 15.54432l0 164.9664c0 0-1.76128 28.30336 27.7504 28.30336l89.41568 0c15.31904 0 27.7504-11.93984 27.7504-26.68544l0-167.85408c0 0-0.12288-8.0896 7.00416-15.42144 6.08256-6.94272 17.24416-7.0656 17.24416-7.0656l200.704 0c38.05184 0 65.16736 31.82592 65.16736 64.86016L855.38816 488.7552l56.34048-41.39008c10.91584-8.02816 26.29632-5.71392 34.34496 5.16096C954.08128 463.38048 951.76704 478.67904 940.8512 486.68672L940.8512 486.68672M807.34208 68.75136c0-16.11776-5.98016-37.13024-40.93952-37.13024l-152.02304 0 0 153.68192c0 34.38592-34.67264 62.19776-63.11936 62.19776l-116.98176 0c-28.44672 0-63.11936-27.81184-63.11936-62.19776l0-153.68192-128.79872 0c-34.97984 0-40.93952 21.01248-40.93952 37.13024l0.36864 456.8064L503.54176 747.25376l303.43168-222.94528L807.34208 68.75136 807.34208 68.75136M807.34208 68.75136"  horiz-adv-x="1024" />

    
    <glyph glyph-name="chakan" unicode="&#59018;" d="M986.2738432 383.89637803000005c0 5.69573149-0.96287175 10.46002688-1.23648114 11.02703843-0.20724509 2.82225095-1.17011683 7.96610674-2.0654592 10.66610688-0.23984469 0.67179861-0.55071175 1.37619683-0.82432113 2.04799545-0.48318237 1.54851214-0.99780039 3.06209565-1.58227684 4.26597718-87.46300871 191.30299165-275.77026901 319.8795867-468.51698574 319.8795867-192.71178809 0-381.00274859-128.45783723-468.06873316-318.72577081-1.04902997-2.0654592-1.78952192-4.04359623-2.25407545-5.76442482-0.20608-0.56701155-0.44708978-1.10025842-0.63570489-1.59974173-1.72082859-5.04139776-1.75459214-8.5494181-1.61720547-7.63777592-0.80802133-3.69896562-1.54851214-11.06196707-1.54851215-11.06196708-0.20608-2.21798173-0.20608-3.99003875 0.03492864-6.19288576 0 0 0.73932686-6.4338944 1.10142351-7.74023396 0.10245803-1.82328661 0.54954781-4.47322112 1.08279467-6.88214812l-0.03492864 0c0.46455353-2.06429525 1.1014235-4.05989717 1.97813702-6.02056932 0.44825373-1.5135835 0.98150059-2.92470898 1.44605412-3.99120384 87.58176654-191.33559125 275.83896235-319.94711609 468.5158218-319.94711608 192.78164651 0 381.08890681 128.50673778 467.55411399 317.8141275 1.34010311 2.47762034 2.20168192 4.81668893 2.78615836 6.84721948 0.27477333 0.61824114 0.51694706 1.16895175 0.68809842 1.7196635 1.51474745 4.40569287 1.82328661 8.22341632 1.68589881 8.22341632l-0.03260075-0.03376469C985.34706403 373.84967623 986.2738432 378.42535538000004 986.2738432 383.89637803000005zM922.41691648 381.55730944000004c-0.03376469-0.13855061-0.10362197-0.30970197-0.17231531-0.44825373-0.10245803-0.41216-0.27360939-0.89417842-0.37839644-1.37619683-77.82846691-167.73183829-242.15357781-280.27725483-409.81788672-280.27725483-167.25098382 0-331.28502158 112.23338553-409.88774514 280.55202816-0.18978019 0.58447645-0.32716686 1.13635214-0.53324686 1.68589881-0.03492864 0.55071175-0.13738667 0.99780039-0.17115136 1.30866745-0.06869333 0.34230272-0.13738667 0.82432114-0.1897802 1.23881017l0 0.42962489c0.18978019 0.70556331 0.32600291 1.40996153 0.3958602 2.18421703 0.13738667 0.41216 0.24100864 0.80802133 0.3958602 1.25510997C179.91918251 555.92912213 344.38284515 668.52576825 512.04715406 668.52576825c167.73183829 0 332.16290019-112.69910414 409.78412203-280.25979108 0.06869333-0.32716686 0.13855061-0.60310528 0.24217372-0.82664903 0.06869333-0.27477333 0.13622272-0.55071175 0.27360939-0.84294997 0.17231531-1.25627392 0.30970197-2.49508409 0.48201842-3.11332523C922.62299648 382.82988317 922.52053845 382.21047808000003 922.41691648 381.55730944000004zM512.04715406 542.08216064c-87.15214165 0-158.09962553-70.9125541-158.09962553-158.08216064 0-87.15214165 70.94748387-158.09962553 158.09962553-158.09962553 87.15214165 0 158.09962553 70.94748387 158.09962553 158.09962553C670.14677959 471.16960654 599.19929571 542.08216064 512.04715406 542.08216064zM512.04715406 289.14022514c-52.26404067 0-94.85861091 42.56080555-94.85861091 94.85861091 0 52.28150557 42.59457024 94.84114603 94.85861091 94.84114603 52.29780537 0 94.86093995-42.56080555 94.86093995-94.84114603C606.90692893 331.70103069000004 564.34495943 289.14022514 512.04715406 289.14022514z"  horiz-adv-x="1024" />

    
    <glyph glyph-name="cha" unicode="&#58885;" d="M119.233957 829.14087l837.898911-837.898911-52.368365-52.368365-837.898911 837.898911 52.368365 52.368365ZM957.140461 776.766043l-837.898911-837.898911-52.368365 52.368365 837.898911 837.898911 52.368365-52.368365Z"  horiz-adv-x="1024" />

    
    <glyph glyph-name="huodongzhongxin" unicode="&#58918;" d="M369.911376 586.551182c-0.109494 0.022513-0.220011 0.046049-0.330528 0.067538l-12.749372-26.334785c-0.794086-1.799996-2.216481-2.249227-3.967358-2.50096-91.295286-13.131065-181.733041-27.043936-272.736685-39.639812-18.485003-2.558265-33.067116-17.546631-33.067116-36.606733 0-10.316973 4.248767-19.642362 11.091616-26.321482 59.727313-58.304917 118.78129-117.817336 177.950901-175.699628l0-0.001023 20.850887-20.400632 0.022513-0.102331c0.490164-0.448208 0.873903-1.01205 1.108241-1.647523 0.334621-1.062192 0.119727-2.053776-0.051165-2.997264-17.09433-94.202499-28.927843-165.621085-46.6556-278.4365l-0.004093-0.033769 0.002047-0.01228c-0.040932-0.706081-0.063445-1.417279-0.063445-2.13257 0-20.316721 16.476253-36.792974 36.792974-36.792974 6.596232 0 12.788258 1.738597 18.142196 4.780887l0.331551 0.110517c80.374562 38.950104 154.436348 76.428693 243.366773 128.3359 1.019213 0.594541 2.026146 1.24434 3.088338 1.24434 0.821715 0 1.588171-0.236384 2.235924-0.644683 96.982822-50.182936 229.245148-118.732172 246.459205-127.507022l0.130983-0.01535c5.193279-2.802836 11.134595-4.3951 17.447371-4.3951 20.316721 0 36.792974 16.476253 36.792974 36.792974 0 4.668323-1.119497 8.203846-2.226714 12.632715-36.243459 144.978952-68.704778 290.930045-104.883769 435.95607-2.990101 9.282411-11.69946 16.000416-21.975501 16.000416-12.745279 0-23.082718-10.337439-23.082718-23.083741 0-1.166569 0-2.330068 0.25378-3.434216 35.19764-153.425322 65.599044-273.252431 98.622158-405.181159l0 0 3.966335-15.851013-14.764262 7.625678 0 0c-180.870394 93.432972-69.560262 36.18513-219.73454 113.457028-1.76111 1.000793-3.574409 1.791809-5.433756 2.580778-16.939811 6.534833-31.507598-1.948375-36.734646-4.754281-75.559906-40.558741-151.378709-82.433454-228.460272-119.499651 14.647605 94.611821 28.134781 170.814364 42.918485 263.591397 2.326998 14.868639-4.281513 25.111934-14.322194 35.154661-61.812811 61.819974-125.07053 122.343419-187.487092 183.581132 113.731274 15.565511 148.363026 20.7373 260.902148 39.603996 5.938246 0.994654 10.707876 1.63115 14.758122 3.246951 7.703449 3.666506 13.650905 9.776667 17.20894 17.058514 39.622416 79.905888 77.108169 160.516834 118.561279 239.548818 41.559535-83.341127 68.645426-133.413546 121.247458-245.251703 3.603061-7.66047 11.790534-11.561313 19.320021-13.821797l0.047072-0.023536 0.090051-0.017396c89.978291-13.059434 169.923064-25.039279 248.607124-36.679387l22.116717-3.665483-14.229073-13.982456 0.001023-0.002047c-37.326117-36.626175-35.536354-34.94079-139.870608-136.656403-14.010085-13.658068-5.640464-39.346123 15.256472-39.96727 6.470365-0.192382 12.643971 2.289136 16.835434 6.583952 57.062624 57.744145 109.155049 111.460558 163.213245 166.358889 0 0 4.985548 6.588045 6.117324 8.655124 12.133342 25.109887-5.272074 49.673329-26.066679 52.847625-91.112114 14.57188-182.688809 25.839505-273.823436 40.11565-1.12973 0.137123-2.369977 0.624217-2.911306 1.724271-41.180911 83.781148-81.637322 168.011528-123.403564 251.540943l-0.183172 0.182149c-6.129604 11.793604-18.457374 19.851117-32.664957 19.851117-14.496156 0-27.303856-8.260128-33.031301-20.574594-35.723619-76.813456-74.394361-150.867056-110.943788-224.564545L369.911376 586.548112zM234.14525 404.206204c51.256384-52.30118 64.565505-65.701374 92.549859-93.817736l1.524726-1.414209c3.966335-3.486404 9.166777-5.602601 14.861476-5.602601 12.43624 0 22.520923 10.083659 22.520923 22.520923 0 5.389754-1.896186 10.338463-5.056156 14.214746l-0.674359 0.792039c-33.273824 33.938973-59.46023 60.534701-91.76703 93.178169l-0.471744 0.23536c-3.975545 3.52529-9.204639 5.668093-14.934131 5.668093-12.435217 0-22.376637-10.085706-22.520923-22.520923C230.140029 414.113855 230.839971 408.475438 234.14525 404.206204L234.14525 404.206204z"  horiz-adv-x="1024" />

    
    <glyph glyph-name="jiazai" unicode="&#59033;" d="M546.462897 629.707034c-73.410207 0-133.15531 59.727448-133.155311 133.137656C413.307586 836.237241 473.05269 896 546.462897 896c73.410207 0 133.12-59.727448 133.12-133.15531 0-73.410207-59.709793-133.137655-133.12-133.137656z m-283.453794-105.736827c-67.054345 0-121.626483 54.554483-121.626482 121.644138s54.572138 121.644138 121.626482 121.644138a121.767724 121.767724 0 0 0 121.608828-121.644138c0-67.054345-54.554483-121.644138-121.608828-121.644138zM142.547862 248.814345A107.343448 107.343448 0 0 0 35.310345 356.104828a107.343448 107.343448 0 0 0 107.237517 107.237517 107.343448 107.343448 0 0 0 107.219862-107.237517 107.343448 107.343448 0 0 0-107.219862-107.272828z m120.461241-272.595862a91.047724 91.047724 0 0 0-90.941793 90.959448 91.065379 91.065379 0 0 0 90.924138 90.941793 91.065379 91.065379 0 0 0 90.941793-90.941793c0-50.14069-40.783448-90.959448-90.924138-90.959448zM546.462897-128a79.518897 79.518897 0 0 0-79.448276 79.448276c0 43.820138 35.645793 79.448276 79.448276 79.448276a79.518897 79.518897 0 0 0 79.43062-79.448276c0-43.820138-35.628138-79.448276-79.448276-79.448276z m287.744 134.285241a64.194207 64.194207 0 0 0-64.123587 64.123587 64.194207 64.194207 0 0 0 64.123587 64.123586 64.194207 64.194207 0 0 0 64.123586-64.123586 64.194207 64.194207 0 0 0-64.123586-64.123587z m117.848275 296.695173a52.683034 52.683034 0 0 0-52.612413 52.612414 52.683034 52.683034 0 0 0 52.612413 52.630069 52.70069 52.70069 0 0 0 52.630069-52.612414 52.718345 52.718345 0 0 0-52.630069-52.630069z m-158.667034 338.696827a40.818759 40.818759 0 1 1 81.655172-0.017655 40.818759 40.818759 0 0 1-81.655172 0z"  horiz-adv-x="1024" />

    
    <glyph glyph-name="761bianjiqi_teshuzifu" unicode="&#58985;" d="M132.05301728 64.17268937999995h182.01208099C198.72173827 160.4863368 141.11478518 278.03041184999995 141.11478518 416.93436839c0 75.47158124 15.14609778 143.17593283 45.56774717 203.11305482 30.29219555 59.93712197 73.14141235 107.18776889 128.54765037 141.88139457 55.40623803 34.69362569 121.94550518 52.04043852 199.61780147 52.04043851 77.02502717 0 141.23412543-15.92282075 192.62729483-47.76846221 51.39316939-31.84564148 93.72457086-77.54284247 126.86475061-137.09160297 33.14017975-59.5487605 49.83972347-130.23055013 49.83972346-212.17482272 0-138.77450272-57.60695309-256.31857778-172.95031309-352.76167901h182.01208098v-98.38490864H568.95968395v92.17112494c135.02034173 62.91456 202.46578569 176.96338173 202.46578568 341.88755753 0 92.9478479-23.81950419 169.45505975-71.4585126 229.52163556-47.63900839 60.06657581-109.51793778 90.22931753-185.76624197 90.22931752-78.44901925 0-141.23412543-30.29219555-188.35531853-90.74713283-46.99173925-60.45493728-70.55233581-134.8908879-70.55233578-223.30785186 0-167.25434469 67.1865363-283.11552 201.43015506-347.58352592v-92.17112494H132.05301728v98.38490864z"  horiz-adv-x="1025" />

    
    <glyph glyph-name="plus-select-down" unicode="&#59152;" d="M260.45 511.957l251.524-251.524 251.523 251.524h-503.046zM260.45 511.957z"  horiz-adv-x="1024" />

    
    <glyph glyph-name="icon-plus-search" unicode="&#59156;" d="M955.598-26.823l-251.515 251.516c58.26 65.085 93.984 150.754 93.984 244.978 0 203.166-164.697 367.863-367.863 367.863-203.165 0-367.863-164.696-367.863-367.863 0-203.164 164.698-367.863 367.863-367.863 94.224 0 179.893 35.728 244.978 93.985l251.516-251.518c3.975-3.975 9.213-5.962 14.451-5.962s10.478 1.986 14.451 5.962c7.946 7.948 7.946 20.954-0.002 28.902zM675.074 253.703c-9.033-10.229-18.675-19.871-28.904-28.902-57.673-50.929-133.16-82.119-215.968-82.119-180.302 0-326.989 146.687-326.989 326.989s146.688 326.989 326.99 326.989c180.301 0 326.989-146.687 326.989-326.989-0.001-82.808-31.191-158.295-82.118-215.968z"  horiz-adv-x="1024" />

    
    <glyph glyph-name="plus-add" unicode="&#59175;" d="M960 384c0-14.080-11.52-25.6-25.6-25.6h-396.8v-396.8c0-14.080-11.52-25.6-25.6-25.6s-25.6 11.52-25.6 25.6v396.8h-396.8c-14.080 0-25.6 11.52-25.6 25.6 0 14.080 11.52 25.6 25.6 25.6h396.8v396.8c0 14.080 11.52 25.6 25.6 25.6s25.6-11.52 25.6-25.6v-396.8h396.8c14.080 0 25.6-11.52 25.6-25.6z"  horiz-adv-x="1024" />

    
    <glyph glyph-name="open" unicode="&#58886;" d="M511.91210937-47.96308594000004c-60.55664063 0-119.26757813 11.25-174.63867187 33.66210938-53.61328125 21.62109375-101.68945313 52.3828125-142.99804688 91.84570312-41.484375 39.46289063-73.91601563 85.4296875-96.67968749 136.66992188-23.64257813 53.0859375-35.59570313 109.59960938-35.59570313 167.78320312 0 73.828125 19.95117188 146.6015625 57.56835938 210.5859375 36.38671875 61.78710938 88.68164063 114.52148438 151.43554687 152.578125 14.15039063 8.61328125 32.60742188 4.13085938 41.22070313-10.10742187 8.61328125-14.15039063 4.13085938-32.60742188-10.10742188-41.22070313-54.31640625-32.95898438-99.58007813-78.48632813-130.86914063-131.74804687-32.25585938-54.75585938-49.21875-117.0703125-49.21874999-180.08789063 0-98.4375 40.4296875-191.25 113.64257812-261.03515625 73.74023438-70.22460938 171.82617188-108.80859375 276.328125-108.80859375s202.58789063 38.671875 276.328125 108.80859375c73.21289063 69.78515625 113.5546875 162.50976563 113.5546875 260.94726563 0 125.24414063-66.00585938 240.99609375-176.66015625 309.81445312-14.0625 8.7890625-18.36914063 27.24609375-9.58007813 41.30859375 8.7890625 14.0625 27.24609375 18.36914063 41.30859376 9.58007813 61.61132813-38.23242188 112.93945313-90.87890625 148.62304687-152.13867188 36.9140625-63.45703125 56.42578125-135.52734375 56.42578125-208.56445312 0-58.18359375-12.04101563-114.69726563-35.5078125-167.87109375-22.76367188-51.24023438-55.28320313-97.20703125-96.6796875-136.66992188-41.30859375-39.28710938-89.47265625-70.22460938-142.99804688-91.84570312-55.546875-22.1484375-114.34570313-33.48632813-174.90234374-33.48632813zM511.91210937 329.52714844c-16.5234375 0-29.97070313 13.359375-29.97070312 29.97070312v426.62109375c0 16.5234375 13.359375 29.97070313 29.97070313 29.97070313 16.5234375 0 29.97070313-13.359375 29.97070312-29.97070313v-426.53320312c0.08789063-16.61132813-13.44726563-30.05859375-29.97070313-30.05859375z"  horiz-adv-x="1024" />

    
    <glyph glyph-name="wenhao-fill" unicode="&#58982;" d="M512 832C264.96 832 64 631.04 64 384s200.96-448 448-448 448 200.96 448 448S759.04 832 512 832z m0-768.353c-26.496 0-48 21.505-48 48 0 26.497 21.504 48.001 48 48.001s48-21.504 48-48-21.504-48-48-48z m88.576 327.168c-27.84-27.808-56.575-56.544-56.575-82.368v-54.112c0-17.665-14.336-32.001-32.001-32.001s-32 14.336-32 32v54.113c0 52.353 39.999 92.352 75.327 127.648 25.887 25.887 52.672 52.64 52.672 73.984 0 53.343-43.072 96.735-95.999 96.735-53.823 0-96-41.536-96-94.56 0-17.664-14.335-31.999-32-31.999s-32 14.337-32 32c0 87.424 71.774 158.559 160 158.559s160-72.095 160-160.735c0-47.87-36.32-84.16-71.424-119.264z"  horiz-adv-x="1024" />

    
    <glyph glyph-name="xuanze" unicode="&#58987;" d="M939.696 627.247c-14.637 13.726-37.719 13.071-51.445-1.602l-485.551-516.969-265.238 261.344c-14.342 14.127-37.392 13.98-51.519-0.364-14.127-14.309-13.945-37.393 0.402-51.483l291.818-287.485c0.109-0.109 0.254-0.144 0.364-0.254s0.144-0.255 0.254-0.364c2.293-2.185 5.062-3.425 7.719-4.88 1.311-0.766 2.438-1.892 3.823-2.438 4.295-1.676 8.846-2.548 13.361-2.548 4.769 0 9.539 0.948 13.98 2.839 1.494 0.619 2.658 1.892 4.043 2.695 2.731 1.603 5.569 2.949 7.901 5.315 0.109 0.109 0.144 0.291 0.255 0.4 0.071 0.11 0.219 0.146 0.326 0.255l511.071 544.096c13.838 14.597 13.074 37.644-1.561 51.441z"  horiz-adv-x="1024" />

    
    <glyph glyph-name="duoxuan-yixuan" unicode="&#59024;" d="M806.062 765.686h-589.824c-48.181 0-87.381-39.2-87.381-87.381v-589.824c0-48.181 39.2-87.381 87.381-87.381h589.824c48.181 0 87.381 39.2 87.381 87.381v589.824c0 48.181-39.2 87.381-87.381 87.381zM743.439 521.8679999999999l-280.227-280.227c-11.286-11.286-29.855-11.286-41.142 0l-143.209 143.209c-11.286 11.286-11.286 29.855 0 41.142s29.855 11.286 41.142 0l122.576-122.576 259.596 259.596c11.286 11.286 29.855 11.286 41.142 0 11.53-11.286 11.53-29.733 0.122-41.142z"  horiz-adv-x="1024" />

    
    <glyph glyph-name="zanting" unicode="&#58911;" d="M415.0745 554.523c-18.981 0-34.4115-15.4395-34.4115-34.4115v-272.2185c0-18.9765 15.435-34.416 34.4115-34.416 18.9765 0 34.4115 15.444 34.4115 34.416V520.1115c0 18.972-15.435 34.4115-34.4115 34.4115zM608.9255 554.523c-18.9765 0-34.4115-15.4395-34.4115-34.4115v-272.2185c0-18.9765 15.4395-34.416 34.4115-34.416s34.4115 15.444 34.4115 34.416V520.1115c0.0045 18.972-15.435 34.4115-34.4115 34.4115zM512-66C263.87-66 62 135.8655 62 384 62 632.13 263.87 834 512 834c248.1345 0 450-201.87 450-450 0-248.1345-201.8655-450-450-450z m0 850.7475c-220.9725 0-400.7475-179.775-400.7475-400.7475 0-220.9725 179.775-400.7475 400.7475-400.7475 220.9725 0 400.7475 179.7705 400.7475 400.7475 0 220.9725-179.775 400.7475-400.7475 400.7475z"  horiz-adv-x="1024" />

    
    <glyph glyph-name="xingming" unicode="&#58943;" d="M800.805662 574.631712c0 149.953244-130.390699 270.045389-283.750529 252.841565C404.196739 814.813956 311.376727 725.688079 294.702975 613.352595c-17.86181-120.335692 49.220005-227.879034 150.123113-271.958972-173.913958-43.898813-304.744679-197.291388-313.596278-382.466831-0.523933-10.954493 8.583492-20.044522 19.550265-20.044522 10.533914 0 18.862603 8.40646 19.385513 18.927071 9.892301 198.911282 174.821631 357.696682 376.144846 357.696682 66.597791 0 131.380236-17.404392 188.522677-50.504254 9.111518-5.278213 20.682042-2.859118 26.41051 5.976108 5.967922 9.203616 3.309372 21.780049-6.1777 27.284413-33.553187 19.467377-69.532633 33.895995-106.886379 43.317575 89.729627 39.377846 152.626119 128.96114 152.62612 233.051847z m-470.038306 0c0 118.847805 96.694249 215.542054 215.542054 215.542054 118.857015 0 215.552288-96.694249 215.552288-215.542054s-96.694249-215.542054-215.552288-215.542055c-118.846782 0-215.542054 96.694249-215.542054 215.542055zM909.383566 119.691265H567.838749a1.023306 1.023306 0 0 0-1.023306 1.023307v36.897351a1.023306 1.023306 0 0 0 1.023306 1.023306h341.544817a1.023306 1.023306 0 0 0 1.023306-1.023306v-36.897351a1.023306 1.023306 0 0 0-1.023306-1.023307zM909.383566-16.61312H567.838749a1.023306 1.023306 0 0 0-1.023306 1.023306v36.897351a1.023306 1.023306 0 0 0 1.023306 1.023307h341.544817a1.023306 1.023306 0 0 0 1.023306-1.023307v-36.897351a1.023306 1.023306 0 0 0-1.023306-1.023306z"  horiz-adv-x="1024" />

    
    <glyph glyph-name="gongju" unicode="&#58896;" d="M444.54216114 805.82229859H583.41044672V729.45791711H444.54216114zM168.07042478 633.6467049l98.18277593 98.13007535L320.21947214 677.81050882 221.98399478 579.6277328799999zM94.23571211 455.19964104h76.36438146V316.27865406H94.23571211zM266.51670862 39.75421628000004l-98.23547818 98.18277594 53.96627142 53.96627142 98.23547736-98.23547818zM444.85836963 42.336586489999945h138.81558417v-76.36438147H444.85836963zM860.30379441 138.14779787999998l-98.23547737-98.23547735-54.01897283 53.9662706 98.23547818 98.23547818zM857.61602136 455.51584956h76.36438147v-138.97368843h-76.36438147zM761.75210773 732.04028733l98.18277676-98.2881796-53.96627143-53.91356918-98.18277593 98.23547735zM514.16075888 28.26530263999996A358.05356049 358.05356049 0 0 0 156.52880972 385.89725181a358.05356049 358.05356049 0 0 0 357.63194916 357.68464974 358.1062619 358.1062619 0 0 0 357.68465058-357.68464974c0-197.15607395-160.47587439-357.63194917-357.68465057-357.63194917z m0 625.98766416a268.61922207 268.61922207 0 0 1-268.35571499-268.35571499 268.72462491 268.72462491 0 0 1 268.355715-268.40841642 268.67192349 268.67192349 0 0 1 268.4084164 268.40841642 268.67192349 268.67192349 0 0 1-268.40841641 268.35571499z"  horiz-adv-x="1024" />

    
    <glyph glyph-name="icon-test2" unicode="&#59111;" d="M421.4-64S34.1 23.399999999999977 207.2 457.2c0 0 39.3-48.2 33.9-71.4 0 0 30.8 109.5 97.3 174.9C395.5 616.9 453.5 774.9 400 832c0 0 265-57.1 294.5-342.7 0 0 33.9 91 103.5 100 0 0-21.4-50 0-125 0 0 219.5-385.5-158.8-515.8 0 0 113.4 132.1-127.1 358.8 0 0-56.7-121.4-90.6-164.2-0.1-0.1-94.7-108.9-0.1-207.1z"  horiz-adv-x="1024" />

    
    <glyph glyph-name="icon-test" unicode="&#58883;" d="M96 832c17.673 0 32-14.327 32-32v-832c0-17.673-14.327-32-32-32s-32 14.327-32 32v832c0 17.673 14.327 32 32 32zM926.4 670.4c5.789-5.791 9.369-13.789 9.369-22.624 0-8.835-3.58-16.833-9.369-22.624l-271.488-271.488c-5.749-5.558-13.59-8.983-22.231-8.983-17.673 0-32 14.327-32 32 0 8.641 3.425 16.482 8.991 22.24l271.479 271.479c5.791 5.789 13.789 9.369 22.624 9.369s16.833-3.58 22.624-9.369zM465.152 593.152c5.789-5.791 9.369-13.789 9.369-22.624s-3.58-16.833-9.369-22.624l-181.056-181.056c-5.749-5.558-13.59-8.983-22.231-8.983-17.673 0-32 14.327-32 32 0 8.641 3.425 16.482 8.991 22.24l180.983 180.983c5.797 5.827 13.821 9.433 22.688 9.433 8.835 0 16.834-3.58 22.624-9.369zM426.304 598.72c-6.045-6.055-9.783-14.415-9.783-23.648s3.738-17.593 9.784-23.648l189.12-189.12c5.942-5.483 13.913-8.844 22.668-8.844 18.486 0 33.472 14.986 33.472 33.472 0 8.756-3.362 16.726-8.865 22.691l-189.099 189.097c-6.034 6.092-14.4 9.864-23.648 9.864s-17.614-3.772-23.645-9.861zM960-32c0-17.673-14.327-32-32-32h-832c-17.673 0-32 14.327-32 32s14.327 32 32 32h832c17.673 0 32-14.327 32-32z"  horiz-adv-x="1024" />

    
    <glyph glyph-name="dizhi" unicode="&#58887;" d="M532.56239053 832.06678418c-153.60281191 3.51493857-289.63093183-128.99824277-286.11599326-280.84358584 0-56.23901543 39.5430583-148.3304045 98.24253046-242.3550085 59.75395401-93.84885791 103.51493877-156.23901563 152.72407793-222.14411279 8.78734599-11.42354971 20.21089658-17.57469287 35.14938486-17.57469199 14.0597543 0 27.24077286 7.02987715 35.14938487 17.57469199 49.20913916 65.90509629 93.84885791 128.11950791 152.72407705 222.14411279 58.87522002 93.84885791 98.24253047 186.11599307 98.24253047 242.3550085 3.51493857 151.84534307-130.75571162 284.35852354-286.11599239 280.84358583z m176.44991132-438.1370833c-37.78558857-71.17750459-90.33391934-150.9666082-156.23901562-241.47627364-4.39367344-6.15114229-12.30228457-9.66608086-20.21089571-9.66608086-7.02987715 0-15.81722315 2.63620371-19.33216171 9.66608086-131.63444648 179.26186289-214.05975381 331.98593994-214.05975469 398.59402412 0 63.26889258 22.84710029 117.57469219 68.54130088 162.3901588s100.87873506 67.66256602 165.0263625 67.66256601c64.14762744 0 119.33216191-22.84710029 165.02636162-67.66256601C744.1616876 668.79789141 767.00878701 614.31634482 767.00878701 551.04745137c0-34.09490303-19.33216172-85.94024589-57.99648516-157.11775049zM882.82601035 96.39015790999997c-13.18101943 13.18101943-30.75571143 23.72583516-52.72407686 31.63444629s-47.45166943 11.42354971-74.69244316 11.42355059v-0.87873487h-1.05448184c-10.54481572 0.87873487-18.45342685-7.02987715-19.33216172-17.57469199 0-10.54481572 7.90861201-19.33216172 18.45342774-19.33216171l23.55008731-0.7029879c48.15465732-3.86643252 71.52899854-23.02284727 79.26186357-30.9314584 7.90861201-7.90861201 11.42354971-14.93848828 11.42354971-21.9683663 0-16.695958-28.11950771-36.90685372-88.57644961-51.845342-62.39015859-15.81722315-151.84534307-25.48330401-248.33040469-25.483304-100.87873506 0-183.47978935 8.96309297-249.20913867 25.65905097-62.39015859 16.695958-90.33391934 36.90685372-90.33391934 51.845342 0 13.18101943 5.27240742 23.72583516 15.81722315 30.7557123 13.88400732 8.61159902 36.37961367 15.28998222 66.60808417 17.92618594 1.40597578-0.35149394 2.98769766-0.52724092 4.56942042-0.52724092l28.11950771 1.75746972c10.54481572 0.87873487 18.45342685 9.66608086 17.57469288 20.21089571 0 9.66608086-9.66608086 17.57469287-19.33216172 17.57469288v0.17574696c-54.48154658-0.87873487-93.84885791-9.66608086-118.45342706-25.483304-22.1441124-14.93848828-32.68892812-35.14938487-32.68892812-62.39015859 0-21.08963057 13.18101943-40.42179229 36.90685371-55.36028057 19.33216172-13.18101943 46.57293457-23.72583516 81.54657334-32.51318115 65.90509629-17.57469287 158.87521933-26.36203886 258.87521953-26.36203887 100.87873506 0 192.09138838 8.78734599 257.11775068 26.1862919 35.14938487 8.78734599 62.39015859 19.33216172 81.54657246 32.51318115 23.72583516 14.93848828 36.02811972 34.27065 36.02811973 55.36028057 0.17574697 17.57469287-7.73286504 33.39191602-22.67135332 48.33040429zM455.76098457 540.1511425799999c0 40.77328623 33.04042207 73.8137083 73.8137083 73.8137083s73.8137083-33.04042207 73.81370742-73.8137083-33.04042207-73.8137083-73.81370742-73.81370831c-40.77328623 0.17574697-73.8137083 33.04042207-73.81370829 73.81370831"  horiz-adv-x="1024" />

    
    <glyph glyph-name="icon-test1" unicode="&#58917;" d="M152.931 26.628c-20.435 20.435-20.365 53.599 0 73.963l641.346 641.346c20.435 20.435 53.599 20.365 73.963 0 20.435-20.435 20.365-53.599 0-73.963l-641.346-641.346c-20.435-20.435-53.528-20.435-73.963 0zM152.931 741.937c20.365 20.365 53.457 20.365 73.751 0.071l639.437-639.437c20.365-20.365 20.294-53.387-0.071-73.751s-53.457-20.365-73.751-0.071l-639.437 639.437c-20.365 20.365-20.294 53.387 0.071 73.751z"  horiz-adv-x="1024" />

    
    <glyph glyph-name="jinhangzhong" unicode="&#58913;" d="M108.544-46.08v55.296c0 155.648 92.16 296.96 235.52 362.496l8.192 4.096-8.192 6.144C202.752 445.44 110.592 586.752 110.592 742.4V814.08h804.864l-2.048-53.248v-18.432c0-155.648-92.16-296.96-235.52-362.496l-8.192-4.096 8.192-6.144c143.36-65.536 235.52-206.848 235.52-362.496v-57.344H108.544z m327.68 397.312c-159.744-34.816-276.48-178.176-276.48-342.016v-6.144h704.512v6.144c0 174.08-126.976 309.248-245.76 348.16h-2.048c-24.576-6.144-47.104-10.24-73.728-12.288H532.48v63.488c16.384-2.048 34.816-4.096 51.2-6.144 161.792 34.816 278.528 178.176 278.528 342.016V766.976H157.696l2.048-8.192v-18.432c0-163.84 116.736-307.2 276.48-342.016 16.384 2.048 30.72 4.096 43.008 6.144h10.24v-63.488l-10.24 2.048c-14.336 4.096-26.624 6.144-43.008 8.192zM266.24 109.568v10.24c0 100.352 81.92 180.224 182.272 180.224h26.624v-51.2l-10.24 2.048H450.56c-71.68 0-131.072-57.344-131.072-129.024v-10.24H266.24z m182.272 389.12c-100.352 0-182.272 81.92-182.272 180.224v10.24h51.2v-10.24c0-71.68 59.392-131.072 131.072-131.072h14.336l10.24 2.048v-51.2H448.512z"  horiz-adv-x="1024" />

    
    <glyph glyph-name="eye" unicode="&#58959;" d="M507.527168 83.86764800000003c1.339392 0 1.339392 0 0 0 275.490816 0 450.680832 211.298304 498.825216 275.492864 8.024064 12.034048 8.024064 26.74688 0 38.780928-46.804992 68.206592-221.997056 290.203648-498.825216 287.526912-276.82816-2.674688-448.006144-220.657664-493.47584-287.526912-8.022016-12.034048-8.022016-26.74688 1.337344-38.780928 60.178432-82.917376 231.358464-275.492864 492.138496-275.492864m1.339392 534.933504h4.009984c219.322368 0 369.104896-164.491264 425.271296-239.382528-57.505792-72.216576-207.286272-228.67968-429.28128-228.67968h-1.337344c-212.635648 0-359.743488 148.43904-425.271296 230.017024 52.15232 66.865152 203.272192 236.709888 426.60864 238.045184M510.201856 236.326912c81.577984 0 148.441088 66.865152 148.441088 148.443136 0 41.457664-17.383424 78.905344-45.467648 105.648128l-105.648128-105.648128v148.443136c-80.24064-1.337344-145.770496-66.8672-145.770496-148.443136 0.002048-81.577984 66.869248-148.443136 148.445184-148.443136"  horiz-adv-x="1024" />

    
    <glyph glyph-name="shouji" unicode="&#58882;" d="M691.2 832H335c-58.2 0-107.5-47-105.3-105.3v-685.4c0-58.2 47-105.3 105.3-105.3h354c58.2 0 107.5 47 107.5 107.5V726.7C796.5 785 749.4 832 691.2 832z m62.7-790.7c0-35.8-29.1-62.7-62.7-62.7H335c-35.8 0-62.7 29.1-62.7 62.7v47h481.6v-47z m0 91.8H272.3V639.4h481.6v-506.3z m0 551.1H272.3v40.3c0 35.8 29.1 62.7 62.7 62.7l356.2 2.2c35.8 0 62.7-29.1 62.7-62.7v-42.5zM545.6 773.8h-69.4c-13.4 0-22.4-9-22.4-22.4 0-13.4 9-22.4 22.4-22.4h69.4c13.4 0 22.4 9 22.4 22.4 0 13.4-9 22.4-22.4 22.4zM512-8c17.9 0 31.4 13.4 31.4 31.4 0 17.9-13.4 31.4-31.4 31.4-17.9 0-31.4-13.4-31.4-31.4S494.1-8 512-8z"  horiz-adv-x="1024" />

    
    <glyph glyph-name="tuichu" unicode="&#59005;" d="M514.304-62.977c-57.876 0-114.084 10.893-166.954 32.489-51.101 20.758-96.927 50.515-136.313 88.434-39.386 37.919-70.293 82.105-91.922 131.269-22.363 50.902-33.711 104.984-33.711 160.737 0 66.712 16.989 132.941 49.098 191.619 31.041 56.686 76.133 106.462 130.439 143.931 15.086 10.412 36.047 7.037 46.828-7.455 10.781-14.493 7.344-34.642-7.743-44.989-45.894-31.749-83.979-73.717-110.146-121.565-27.47-50.162-41.388-104.502-41.388-161.541 0-93.061 37.65-180.563 106.007-246.342 68.324-65.812 159.177-102.059 255.805-102.059 96.595 0 187.482 36.248 255.839 102.06 68.357 65.78 105.974 153.281 105.974 246.342 0 56.975-13.885 111.411-41.388 161.54-26.167 47.816-64.285 89.816-110.179 121.502-15.054 10.346-18.558 30.495-7.744 44.989 10.814 14.492 31.743 17.898 46.795 7.454 54.339-37.469 99.498-87.245 130.507-143.93 32.142-58.678 49.131-124.907 49.131-191.619 0-55.754-11.348-109.836-33.744-160.769-21.597-49.166-52.537-93.351-91.923-131.269-39.385-37.919-85.212-67.643-136.313-88.499-52.903-21.466-109.078-32.327-166.954-32.327h-0.001v-0.002z m10.08 448.084c-18.524 0-33.544 14.397-33.544 32.264V799.836c0 17.803 15.02 32.296 33.544 32.296 18.525 0 33.578-14.493 33.578-32.296v-382.465c0-17.867-15.052-32.264-33.578-32.264z"  horiz-adv-x="1024" />

    
    <glyph glyph-name="Loading" unicode="&#58940;" d="M500.914065 794.1505970000001m-101.850403 0a101.850403 101.850403 0 1 1 203.700806 0 101.850403 101.850403 0 1 1-203.700806 0ZM254.163511 708.491099m-96.031438 0a96.031437 96.031437 0 1 1 192.062875 0 96.031437 96.031437 0 1 1-192.062875 0ZM120.713293 514.604235m-90.210472 0a90.210471 90.210471 0 1 1 180.420943 0 90.210471 90.210471 0 1 1-180.420943 0ZM118.049308 286.27757299999996m-84.390505 0a84.390506 84.390506 0 1 1 168.781011 0 84.390506 84.390506 0 1 1-168.781011 0ZM224.002687 109.87260600000002m-78.570539 0a78.57054 78.57054 0 1 1 157.141079 0 78.57054 78.57054 0 1 1-157.141079 0ZM418.803546 6.291212999999971m-72.750574 0a72.750574 72.750574 0 1 1 145.501148 0 72.750574 72.750574 0 1 1-145.501148 0ZM626.851327 18.14214400000003m-66.931608 0a66.931608 66.931608 0 1 1 133.863216 0 66.931608 66.931608 0 1 1-133.863216 0ZM800.334311 133.51646800000003m-61.110642 0a61.110642 61.110642 0 1 1 122.221283 0 61.110642 61.110642 0 1 1-122.221283 0ZM889.516788 308.85144m-55.290676 0a55.290676 55.290676 0 1 1 110.581352 0 55.290676 55.290676 0 1 1-110.581352 0ZM888.602793 487.103396m-49.47071 0a49.47071 49.47071 0 1 1 98.94142 0 49.47071 49.47071 0 1 1-98.94142 0ZM818.663203 635.952524m-43.650744 0a43.650744 43.650744 0 1 1 87.301488 0 43.650744 43.650744 0 1 1-87.301488 0ZM708.18485 736.009937m-37.829778 0a37.829778 37.829778 0 1 1 75.659557 0 37.829778 37.829778 0 1 1-75.659557 0Z"  horiz-adv-x="1024" />

    
    <glyph glyph-name="mima" unicode="&#58936;" d="M222.9-64.1c-17.6 0-35 7.3-47.7 20.1-12.2 12.3-18.9 28.4-18.8 45.4 0.7 100.3 0.6 202.3 0.5 301 0 42.6-0.1 86.7 0 130.1 0 37.3 26.8 63.5 65.3 63.9H233.7c3.4 0 5.7 0.2 6.5 0.9 1 1 1 4.7 0.9 10.2 0 2.1-0.1 4.5 0 7.3 0.1 13.4-0.1 20.4-0.2 26-0.2 8.2-0.3 14.1 0.4 33.6 3.8 102.1 51.6 178.3 142.1 226.7 40.1 21.4 84.8 32.7 129.4 32.7 69.6 0 136.4-26.8 188.1-75.5 52.2-49.2 79.5-110.1 81.3-181 0.6-21.6 0.5-28.4 0.3-38.6-0.1-6.3-0.2-14-0.1-27.4v-3.7c0-5.6 0-9.3 1-10.2 0.7-0.7 2.7-0.8 5.8-0.8h8.1c15.3-0.2 29.3-5 40.6-14.1 11.4-9.1 19-21.6 21.9-36.2 1.1-5.6 1.1-11.4 1.1-17v-427.5c0-39.6-26.2-65.2-66.7-65.3H507.8c-26.5 0-53.5 0.1-79.6 0.1-26.1 0.1-53.1 0.1-79.6 0.1-48.9 0-88.6-0.2-125-0.7l-0.7-0.1z m11.6 497.2c-4.8 0-9.3-1.8-12.6-5.1a18.2 18.2 0 0 1-5.3-12.4v-402.1c0-4.7 1.9-9.1 5.3-12.4 3.4-3.3 7.8-5.1 12.5-5.1h548.1c4.8 0 9.2 1.8 12.6 5.1 3.4 3.3 5.2 7.7 5.3 12.4v2h0.1V415.7c0 4.6-1.9 9.1-5.3 12.4-3.4 3.3-7.8 5.1-12.5 5.1H234.5z m63.4 132.8c-0.1-18.5-0.1-24.2-0.1-32.6 0-5.7 0.1-12.7 0.1-25.8v-0.1c0-5.5 0-8.8 1.1-9.8 1.1-1.1 4.8-1.1 10.3-1.1h413c1.6 0 3.3 0.1 4.1 0.9 0.6 0.6 0.9 1.8 0.9 3.5-0.3 15.9 0 26.8 0.3 36.4 0.5 17 0.9 29.3-2.6 57.4-6.3 51.4-32 98.5-72.6 132.4-39.5 33.1-89.6 51.3-141 51.3-26.3 0-52.2-4.8-76.9-14.2-82.3-31.2-135.9-108.3-136.6-196.3v-2z m213.2-504.5c-17.1 0.3-31.4 11.8-33.9 27.3-2.2 13.2-1.9 26.4-1.5 39.1 0.2 8 0.4 15.5 0 22.6v0.1 18.6c0 13.4 0 26.1-0.1 38.6-0.1 11-3.9 18.3-12.7 24.4-28.3 19.6-39.1 58.3-25.8 92.2 11.6 29.6 42.1 49.5 75.9 49.5 2.6 0 5.3-0.1 8-0.4 16.5-1.5 32.7-8.7 45.6-20.2 12.9-11.6 21.7-26.8 24.6-43 6-32.8-4.7-60-31-78.5-10.4-7.3-14.7-15.8-14.7-29.1-0.1-33.7-0.1-68-0.1-101.1 0.2-4.8-0.3-9.6-1.4-14.4-4.1-15.6-16.7-25.7-32.2-25.7 0.1-0.1-0.4-0.1-0.7 0z"  horiz-adv-x="1024" />

    
    <glyph glyph-name="tianjia1" unicode="&#58919;" d="M512.010241 75.073662a26.003129 26.003129 0 0 1 26.488162 26.461215v255.989356h255.989356a26.003129 26.003129 0 0 1 26.461215 26.488162 26.003129 26.003129 0 0 1-26.461215 26.488162h-255.989356v255.989356A26.003129 26.003129 0 0 1 512.010241 692.978075a26.003129 26.003129 0 0 1-26.488162-26.488162v-255.989356h-255.989356a26.003129 26.003129 0 0 1-26.488162-26.488162c0-15.00906 11.479102-26.488162 26.488162-26.488162h255.989356v-255.989356c0-15.00906 11.479102-26.461216 26.488162-26.461215z m-88.275909 767.968068h176.551817a26.003129 26.003129 0 0 1 26.488162 26.461216 26.003129 26.003129 0 0 1-26.488162 26.488162h-176.551817a26.003129 26.003129 0 0 1-26.488161-26.488162c0-15.00906 11.479102-26.488162 26.488161-26.488162zM26.51969 622.325013a26.003129 26.003129 0 0 1 26.488162 26.488162V772.415614c0 38.829543 31.769626 70.59917 70.59917 70.59917h123.575493a26.003129 26.003129 0 0 1 26.488162 26.488162A26.003129 26.003129 0 0 1 247.182515 895.991108H123.607022A123.952741 123.952741 0 0 1 0.031528 772.415614v-123.575493c0-15.00906 11.479102-26.488162 26.488162-26.488162z m0-353.103634a26.003129 26.003129 0 0 1 26.488162 26.488161v176.551818a26.003129 26.003129 0 0 1-26.488162 26.488161 26.003129 26.003129 0 0 1-26.488162-26.488161v-176.551818c0-15.00906 11.479102-26.488162 26.488162-26.488161z m220.689772-344.238319H123.580076a70.81474 70.81474 0 0 0-70.59917 70.59917v123.575493a26.003129 26.003129 0 0 1-26.488162 26.488162 26.003129 26.003129 0 0 1-26.488162-26.488162v-123.575493A123.952741 123.952741 0 0 1 123.607022-127.966317h123.575493a26.003129 26.003129 0 0 1 26.488162 26.488162 26.003129 26.003129 0 0 1-26.488162 26.488161z m353.076687 0h-176.551817a26.003129 26.003129 0 0 1-26.488161-26.488162c0-15.00906 11.479102-26.488162 26.488161-26.488161h176.551817a26.003129 26.003129 0 0 1 26.488162 26.488161 26.003129 26.003129 0 0 1-26.488162 26.488162z m397.214643 220.689771a26.003129 26.003129 0 0 1-26.488162-26.515108v-123.575493c0-38.829543-31.769626-70.59917-70.59917-70.59917h-123.575494a26.003129 26.003129 0 0 1-26.488161-26.488162c0-15.00906 11.479102-26.488162 26.488161-26.488161h123.575494A123.952741 123.952741 0 0 1 1023.988953-4.390824v123.60244a26.003129 26.003129 0 0 1-26.488161 26.461215z m0 353.076688a26.003129 26.003129 0 0 1-26.488162-26.488161v-176.551818c0-15.00906 11.479102-26.488162 26.488162-26.488161a26.003129 26.003129 0 0 1 26.488161 26.488161v176.551818a26.003129 26.003129 0 0 1-26.488161 26.488161zM900.41346 895.991108h-123.575494a26.003129 26.003129 0 0 1-26.488161-26.488162c0-15.00906 11.479102-26.488162 26.488161-26.488162h123.575494c38.829543 0 70.59917-31.769626 70.59917-70.59917v-123.575493c0-15.00906 11.479102-26.488162 26.488162-26.488162A26.003129 26.003129 0 0 1 1023.988953 648.840121V772.415614A123.952741 123.952741 0 0 1 900.41346 895.991108z"  horiz-adv-x="1024" />

    
    <glyph glyph-name="icon--" unicode="&#59271;" d="M512 76.8c-128 0-238.08 87.04-271.36 204.8h84.48c7.68 7.68 12.8 17.92 5.12 25.6l-97.28 97.28c-7.68 7.68-20.48 7.68-28.16 0L107.52 307.2c-10.24-12.8-2.56-17.92 5.12-25.6h76.8c35.84-145.92 166.4-256 322.56-256 120.32 0 225.28 64 284.16 158.72l-48.64 20.48c-51.2-76.8-138.24-128-235.52-128z m401.92 332.8h-71.68c-25.6 158.72-161.28 281.6-327.68 281.6-128 0-240.64-71.68-294.4-179.2l48.64-17.92c48.64 87.04 140.8 145.92 248.32 145.92 138.24 0 253.44-99.84 276.48-230.4h-87.04c-7.68-7.68-15.36-12.8-5.12-25.6l94.72-97.28c7.68-7.68 20.48-7.68 28.16 0L921.6 384c5.12 7.68 0 17.92-7.68 25.6z"  horiz-adv-x="1024" />

    
    <glyph glyph-name="yonghu" unicode="&#58881;" d="M512 321.49980468c-140.00009766 0-249.99960937 110.00039062-249.99960937 250.00048828S371.99902344 821.49902343 512 821.49902343s249.99960937-109.99951172 249.99960937-249.99960938S652.00097656 321.49980468 512 321.49980468z m0 50.00097656c110.00039062 0 200.00039063 90 200.00039063 199.99951172S622.00039062 771.49980468 512 771.49980468s-200.00039063-90-200.00039063-199.99951172S401.99960938 371.49902342999997 512 371.49902342999997zM112.00009766-28.500000010000008c0 219.99990234 180 399.99990234 399.99990234 399.99990234S911.99990234 191.49990233000005 911.99990234-28.500000010000008h-50.00009765c0 195.00029297-154.99951172 349.99980469-349.99980469 349.99980469S162.00019531 166.50029296000002 162.00019531-28.500000010000008h-50.00097656z"  horiz-adv-x="1024" />

    
    <glyph glyph-name="download" unicode="&#58938;" d="M1007.981303 192.0127c-8.83907 0-15.99612-7.15705-15.996119-15.99612v-96.010583c0-2.020681-2.528674-5.587918-4.436468-6.265241L521.708301-91.54871600000001c-4.808996-1.715886-14.630184-1.715886-19.450468 0L36.439996 73.74075600000003c-1.907794 0.677323-4.436468 4.24456-4.436468 6.265241v96.010583a15.99612 15.99612 0 0 1-32.003528 0v-96.010583c0-15.555859 11.062948-31.224606 25.726998-36.428707l465.829126-165.30076c5.91529-2.099702 13.173939-3.149554 20.432587-3.149554s14.517297 1.06114 20.421299 3.149554l465.840414 165.30076c14.675339 5.204101 25.726998 20.861559 25.726999 36.428707v96.010583c0 8.83907-7.15705 15.99612-15.99612 15.99612zM500.496792 532.954691l0.474126-0.474127 11.051659-11.051659 11.05166 11.051659 0.474126 0.474127 191.772814 191.784103a15.984831 15.984831 0 1 1-22.622599 22.622599L528.018697 582.670224V880.00388a15.984831 15.984831 0 1 1-31.992239 0v-297.322367L331.357866 747.361393a15.99612 15.99612 0 1 1-22.6226-22.622599L500.496792 532.954691zM91.099989 320.78315499999997l416.034572-144.021519a16.086429 16.086429 0 0 1 9.798611 0L932.900011 320.78315499999997a15.99612 15.99612 0 0 1 0 30.47955L516.888017 495.23907a15.917098 15.917098 0 0 1-9.787322 0L91.099989 351.25141699999995a16.007408 16.007408 0 0 1 0-30.468262z m420.888722 142.418521l363.722633-127.178746-363.688767-127.2239-363.74521 127.2239 363.711344 127.178746zM91.099989 160.77680499999997l416.034572-144.021519c1.59171-0.507993 3.239863-0.745056 4.899305-0.745056s3.307596 0.237063 4.899306 0.745056L932.900011 160.77680499999997a16.007408 16.007408 0 0 1 0 30.47955L854.601433 216.41891699999996l-52.289362-16.797618 73.399273-23.59343-363.677478-127.2239-363.74521 127.2239 73.399273 23.59343-52.289362 16.820196L91.099989 191.24506699999995a15.984831 15.984831 0 0 1 0-30.468262z"  horiz-adv-x="1024" />

    
    <glyph glyph-name="shanchu" unicode="&#58939;" d="M819.2 715.776h-143.701333a118.784 118.784 0 0 1-116.053334 94.890667h-94.890666a118.784 118.784 0 0 1-116.053334-94.890667H204.8a118.784 118.784 0 0 1-119.466667-118.442667 23.552 23.552 0 0 1 23.552-23.552H204.8v-521.557333a94.890667 94.890667 0 0 1 93.866667-94.890667h426.666666A94.890667 94.890667 0 0 1 819.2 52.224V573.781333h94.890667a23.552 23.552 0 0 1 23.552 23.552A118.784 118.784 0 0 1 819.2 715.776zM464.554667 763.221333h94.890666a71.338667 71.338667 0 0 0 68.266667-47.445333h-230.058667a71.338667 71.338667 0 0 0 66.901334 47.445333z m307.2-710.997333a47.445333 47.445333 0 0 0-47.445334-47.445333H298.666667a47.445333 47.445333 0 0 0-47.445334 47.445333V573.781333h521.557334zM819.2 620.885333H136.533333a71.338667 71.338667 0 0 0 68.266667 47.445334h614.4a71.338667 71.338667 0 0 0 68.266667-47.445334zM654.336 99.669333a23.552 23.552 0 0 1 23.552 23.552v331.776a23.552 23.552 0 1 1-47.445333 0v-331.776a23.552 23.552 0 0 1 23.552-23.552zM512 99.669333a23.552 23.552 0 0 1 23.552 23.552v331.776a23.552 23.552 0 1 1-47.445333 0v-331.776a23.552 23.552 0 0 1 23.552-23.552zM369.664 99.669333a23.552 23.552 0 0 1 23.552 23.552v331.776a23.552 23.552 0 1 1-47.445333 0v-331.776a23.552 23.552 0 0 1 23.552-23.552z"  horiz-adv-x="1024" />

    
    <glyph glyph-name="renwu3" unicode="&#59025;" d="M138.9915353-15.670567819999974v51.63157154c0 175.52696206 135.36230695 320.19130322 307.81841711 336.49005789l-0.07456541 0.03852545s0.1752287 0 0.44987795-0.00745653c10.57088884 0.99296263 21.26481059 1.55096042 32.09419282 1.5509604 1.63173959 0 3.23738131-0.09320675 4.86166437-0.1118481 38.13771886 2.95776105 95.84637087 11.9192799 126.013048 38.84360469l14.75649354 11.50295639c57.66515553 45.03129051 90.73739791 112.30295564 90.73739791 184.55558979 0 129.47164001-106.04816096 234.79651654-236.41458581 234.79651654-130.3651821 0-236.41458582-105.32487653-236.41458583-234.79651654 0-72.25387691 33.0747279-139.52554204 90.73615516-184.55558979l14.76022181-11.50295639-17.38989507-6.9035137C177.31318215 344.87056126000004 78.05420127 199.68301951 78.05420127 35.96348924999995v-81.83428863c0-16.6566686 13.65789659-30.21514464 30.46121047-30.21514463h445.15049351a308.18751587 308.18751587 0 0 0-36.83158153 60.4178617H138.9915353v-0.00248551z m164.76593144 624.49396152c0 96.16203108 78.71372644 174.38859689 175.47600904 174.38859688s175.49216487-78.2265658 175.49216487-174.38859688-78.72988228-174.38611137-175.49216487-174.38611137-175.47600903 78.22283754-175.47600904 174.38611137zM705.0672307-76.04120477000004c-131.11580718 0-237.79528855 106.71427857-237.79528856 237.88476704-0.00372827 131.10586512 106.67451036 237.77043342 237.79528856 237.77043342 131.15681814 0 237.85866915-106.66705381 237.85866915-237.77043342-0.00372827-131.17048847-106.701851-237.88476704-237.85866915-237.88476704z m0 427.69970335c-104.673672 0-189.83979145-85.15493463-189.83979145-189.81493631 0-104.69852714 85.16611945-189.86588933 189.83979145-189.86588934 104.69976989 0 189.87707414 85.1673622 189.87707414 189.86588934-0.00497103 104.66000167-85.1847608 189.81493631-189.87707414 189.81493631zM701.7030882 105.08064814c5.51038339-5.51038339 3.8351473-16.11979769-3.74194054-23.69564277-7.57708785-7.57708785-18.18525938-9.25232394-23.69564277-3.74194056l-69.84044332 69.84044332c-5.51038339 5.51038339-3.8351473 16.11979769 3.74194054 23.69564277 7.57708785 7.57708785 18.18525938 9.25108118 23.69564278 3.74194055l69.84044331-69.84044331zM812.69866374 226.05431754999995c8.1412994-8.1412994 9.91098501-19.57341867 3.95072368-25.53367999l-122.3730135-122.37301351c-5.96026132-5.96026132-17.39238059-4.19057573-25.53368 3.95072367s-9.91098501 19.57341867-3.95072367 25.53368l122.3730135 122.37301351c5.96026132 5.95901857 17.39238059 4.19057573 25.53367999-3.95072368z"  horiz-adv-x="1024" />

    
    <glyph glyph-name="kaiqi" unicode="&#58931;" d="M512-63.3C266-63.3 64.7 138 64.7 384S266 831.3 512 831.3 959.3 630 959.3 384 758-63.3 512-63.3m0 55.9c198.5 0 360 143.7 387.3 333.9 37.2 258.8-186 482-444.8 444.8C264.2 744 120.6 582.5 120.6 384c0-218.1 173.3-391.4 391.4-391.4M446.8 551.1l226-147.6c25.2-16.4 23.5-56.9-2.9-70.9L444 213.2c-24.4-12.9-52.7 6.6-52.7 36.3v267c-0.1 31.2 31 50.6 55.5 34.6z"  horiz-adv-x="1024" />

    
    <glyph glyph-name="gengduo" unicode="&#58991;" d="M225.394413-123.423464c10.15419 0 19.736313 4.004469 26.887151 11.155308l469.381006 469.381005c7.150838 7.150838 11.155307 16.732961 11.155307 26.887151 0 10.15419-4.004469 19.736313-11.155307 26.887151L252.281564 880.268156c-7.150838 7.150838-16.732961 11.155307-26.887151 11.155308-10.15419 0-19.736313-4.004469-26.88715-11.155308S187.351955 863.535196 187.351955 853.381006c0-10.15419 4.004469-19.736313 11.155308-26.887151L640.858101 384 198.507263-58.493855c-7.150838-7.150838-11.155307-16.732961-11.155308-26.887151 0-10.15419 4.004469-19.736313 11.155308-26.88715 7.150838-7.293855 16.732961-11.155307 26.88715-11.155308z"  horiz-adv-x="1024" />

    
    <glyph glyph-name="xiaoshouguanli" unicode="&#58891;" d="M653.733108 426.854685a255.988321 255.988321 0 1 1-283.507065 0 412.781167 412.781167 0 0 1-306.546014-383.982481C64.32-71.682569 288.30978-128 512.299561-128s447.979561 56.317431 447.979561 168.952292a412.781167 412.781167 0 0 1-306.546014 385.902393z m-85.756087-334.064759l-55.67746-55.037488-55.67746 55.677459L512.299561 279.6614zM320.308321 639.964962a191.99124 191.99124 0 1 0 191.99124-191.991241 191.99124 191.99124 0 0 0-191.99124 191.991241z m191.99124-703.967882c-234.229313 0-383.982481 63.99708-383.982481 104.955212A360.943532 360.943532 0 0 0 475.821225 383.976641l-85.756087-291.186715a31.99854 31.99854 0 0 1 8.31962-31.99854l91.515825-91.515824a31.99854 31.99854 0 0 1 45.437927 0L626.854334 63.99124a31.99854 31.99854 0 0 1 8.319621 31.99854L548.777897 383.976641A360.943532 360.943532 0 0 0 896.282042 40.952292C896.282042-0.00584 746.528874-64.00292 512.299561-64.00292z"  horiz-adv-x="1024" />

    
    <glyph glyph-name="yingpinzhiwei" unicode="&#58916;" d="M380.07845925 640.5613037c-11.28675555 0-20.38897778 9.10222222-20.38897777 20.26761482 0 11.28675555 9.10222222 20.51034075 20.26761482 20.51034073l146.36373333 0.72817778h0.12136296c11.28675555 0 20.38897778-9.10222222 20.38897778-20.26761481 0-11.28675555-9.10222222-20.51034075-20.26761482-20.51034074l-146.4850963-0.72817778c0.12136297 0 0 0 0 0zM442.94447408-69.41202963c-3.64088889 0-7.40314075 0.9709037-10.67994075 3.03407408L191.11632592 80.71395555000004c-8.00995555 4.85451852-11.65084445 14.68491852-8.85949629 23.66577778l176.34038519 553.65783704-144.1792 144.78601481c-5.70405925 5.82542222-7.5245037 14.68491852-4.36906667 22.33078519 3.15543703 7.64586667 10.55857778 12.62174815 18.81125926 12.62174815h456.08201481c8.37404445 0 15.89854815-5.09724445 18.93262223-12.86447407 3.15543703-7.76722963 1.21362963-16.62672592-4.85451853-22.3307852L547.80207408 657.67348148l174.76266667-553.41511111c2.91271111-9.22358518-0.9709037-19.17534815-9.46631112-23.9085037L452.89623703-66.74204444999998c-3.03407408-1.82044445-6.5536-2.66998518-9.95176295-2.66998518zM226.06885925 107.17108148l217.23970372-132.52835556 235.32278518 133.01380741-173.54903704 549.65285926c-2.3058963 7.40314075-0.24272592 15.53445925 5.33997037 20.87442963l123.79022222 118.45025186H278.13357037l118.20752593-118.81434075c5.33997037-5.46133333 7.28177778-13.34992592 4.97588148-20.6317037L226.06885925 107.17108148zM675.35454815 257.90388148c-8.98085925 0-17.11217778 5.94678518-19.6608 14.92764444-3.03407408 10.92266667 3.2768 22.08805925 14.19946667 25.12213333l115.17345185 32.1611852L513.45635555 637.64859259c-7.5245037 8.49540741-6.67496297 21.35988148 1.82044445 28.88438519 8.49540741 7.5245037 21.35988148 6.67496297 28.88438518-1.82044445l292.9701926-331.80634074c4.61179259-5.21860741 6.31087408-12.62174815 4.2477037-19.29671111-1.94180741-6.79632592-7.28177778-12.01493333-14.0781037-13.83537778l-146.4850963-40.89931852c-1.82044445-0.72817778-3.64088889-0.9709037-5.46133333-0.9709037z"  horiz-adv-x="1024" />

    
    <glyph glyph-name="jinyong" unicode="&#58884;" d="M512 834A450 450 0 1 1 962 384 450.6 450.6 0 0 1 512 834zM902 384a388.2 388.2 0 0 0-94.2-253.2L258.8 679.8A389.4 389.4 0 0 0 902 384z m-780 0a388.2 388.2 0 0 0 94.2 253.2l549-549A389.4 389.4 0 0 0 122 384z"  horiz-adv-x="1024" />

    
    <glyph glyph-name="mingcheng" unicode="&#59256;" d="M907.89892578 796.48125c9.15292969 0 16.60078125-7.29667969 16.60078125-16.26416016v-375.86074218c0-8.54912109-1.24980469-10.98896484-20.22626953-29.35195313-3.07265625-2.97333984-6.30087891-6.09960938-9.64072266-9.43242187L639.66904297 111.51972655999998 239.74384766 511.43613281 494.44121094 765.3829101599999c5.26289062 5.50722656 9.77431641 10.46425781 13.80585937 14.90009765 14.72783203 16.19824219 14.72783203 16.19824219 22.62392578 16.19824219h377.02792969m0 37.49941406H530.87099609c-29.75449219 0-35.18789062-13.02099609-63.54140625-42.69111328L186.67197266 511.47480469l452.95048828-452.94082031 281.48027344 280.47392578c23.88076172 23.82890625 40.89814453 35.68007813 40.89814453 65.3484375V780.21621094C961.99912109 809.85908203 937.65341797 833.98066406 907.89892578 833.98066406zM680.10751953 421.32099609c-35.00947266 0-67.89550781 13.62304688-92.65166016 38.37919922-51.08642578 51.12333984-51.08642578 134.28984375 0 185.41230469 49.43847656 49.51142578 135.86396484 49.51142578 185.30244141 0 51.08642578-51.12333984 51.08642578-134.28984375 0-185.41230469-24.75527344-24.75615234-57.64130859-38.37919922-92.65078125-38.37919922z m0 224.70732422c-24.97587891 0-48.48662109-9.74091797-66.13769531-27.42890625-36.47460938-36.51152344-36.47460938-95.87373047 0-132.3852539 35.30302734-35.30302734 96.97236328-35.30302734 132.27539062 0 36.47460938 36.51152344 36.47460938 95.87373047 0 132.3852539-17.65107422 17.68798828-41.16181641 27.42890625-66.13769531 27.42890625zM146.80566406 418.77128906l399.91464844-399.89970703-23.38242188-23.31474609c-14.95722656-14.90273437-34.84863281-23.11259766-56.0109375-23.11259766s-41.05458984 8.20986328-56.00478515 23.10556641L122.64101562 283.36435546999996c-14.92294922 14.87021484-23.14072266 34.63417969-23.14072265 55.65498047s8.21777344 40.78476562 23.15390625 55.66376953l24.15146484 24.08818359m0.03515625 52.99716797l-50.6671875-50.53271484c-45.56425781-45.39638672-45.56425781-119.03642578 0-164.43544922l288.67148438-287.80751953c22.78212891-22.69863281 52.63242187-34.04882813 82.48183593-34.04882813 29.85117187 0 59.70058594 11.35019531 82.48007813 34.04882813l49.98427734 49.84101562L146.84082031 471.76845703z"  horiz-adv-x="1024" />

    
    <glyph glyph-name="QQ" unicode="&#58907;" d="M540.875 820.3125c251.4375 0 268.96875-299.53125 268.96875-299.53125s42.46875-33.75 22.21875-86.8125c0 0 127.40625-165 70.59375-277.875-5.90625-11.71875-15.1875-15.84375-25.40625-15.84375-24.375 0-53.8125 23.53125-53.8125 23.53125l-38.25-62.15625s121.125-66.09375 27.1875-127.03125c-30.46875-19.78125-64.125-26.90625-96.84375-26.90625-84.9375 0-163.6875 47.90625-163.6875 47.90625h-53.53125s-79.875-41.15625-161.90625-41.15625c-42 0-84.5625 10.78125-117.46875 43.3125-55.40625 55.03125 47.8125 108.5625 47.8125 108.5625l-45.46875 60.75s-28.125-29.4375-57.28125-29.4375c-18.46875 0-37.3125 11.71875-49.875 49.78125-40.96875 123.09375 103.21875 243.09375 103.21875 243.09375s-1.125 54.5625 28.78125 99.84375c0 0 13.6875 289.5 275.53125 289.5h2.625c5.625 0.375 11.15625 0.46875 16.59375 0.46875m0 43.59375c-5.71875 0-11.625-0.09375-17.625-0.375h-1.59375c-124.6875 0-219.75-58.40625-274.875-168.84375-31.21875-62.53125-40.5-124.78125-43.125-150.28125-20.0625-34.875-26.625-71.34375-28.78125-93.65625-40.03125-38.34375-143.4375-152.625-102.375-276.9375 22.875-69.28125 67.03125-79.6875 91.21875-79.6875 7.3125 0 14.4375 0.9375 21.28125 2.53125-12.1875-14.53125-22.125-31.96875-25.125-51.9375-3-19.78125-0.5625-49.3125 28.21875-77.90625 37.40625-37.125 87.28125-55.96875 148.125-55.96875 74.625 0 145.96875 29.34375 171.84375 41.15625h32.34375c26.90625-14.34375 97.96875-47.90625 175.03125-47.90625 45.375 0 85.96875 11.4375 120.5625 33.84375 47.53125 30.84375 56.4375 66.28125 55.5 90.5625-1.03125 28.03125-15.46875 51.75-32.34375 70.03125 5.90625-1.21875 12-1.96875 18.09375-1.96875 28.125 0 51.5625 14.53125 64.3125 39.75 57.28125 113.71875-26.8125 255.09375-62.0625 306.1875 7.3125 42.1875-9.65625 76.59375-27.84375 97.875-3.5625 28.59375-13.875 88.5-42.75 148.78125C754.34375 803.53125 661.625 863.90625 540.875 863.90625z"  horiz-adv-x="1024" />

    
    <glyph glyph-name="bianji-copy" unicode="&#59303;" d="M210.32478289-37.179194629999984C180.94467209-37.179194629999984 150.36383252-24.594566170000007 127.21836184-2.061578059999988 104.07403403 20.472519929999976 90.34341837 49.46258835000003 90.34341837 78.06411895999997L90.34341837 696.79931433C90.34341837 726.32264841 104.64580978 753.61940122 129.78677722 772.72456841 151.835583 789.4806936 180.73197129 799.22420654 210.32478289 799.22420654L562.75841467 799.22420654C578.20892901 799.22420654 590.73424286 786.92458017 590.73424286 771.8829212 590.73424286 756.84126223 578.20892901 744.54163586 562.75841467 744.54163586L210.32478289 744.54163586C179.96922293 744.54163586 146.51349722 725.78381515 146.51349722 696.79931433L146.51349722 78.06411895999997C146.51349722 48.20011586999999 179.65017254 17.502262029999997 210.32478289 17.502262029999997L822.2918739 17.502262029999997C852.06307684 17.502262029999997 869.63945557 48.51183782999999 869.63945557 78.06411895999997L869.63945557 374.30609032999996C869.63945557 389.3477493 882.27340798 401.54161277 897.72392316 401.54161277 913.17444163 401.54161277 925.80838993 389.3477493 925.80838993 374.30609032999996L925.80838993 78.06411895999997C925.80838993 49.253289730000006 916.64626028 21.90421206999997 899.43582022 0.4377561000000014 879.81134138-24.03792186999999 852.61770075-37.179194629999984 822.2918739-37.179194629999984L210.32478289-37.179194629999984ZM523.24872915 371.72424829C514.18037031 371.72424829 505.11086777 375.09306272000003 498.19124106 381.82958002 484.35313132 395.30261379 484.35313132 417.14424682 498.19124106 430.6161666L872.42971869 794.9502865C886.26783173 808.42220709 908.70544477 808.42220709 922.54355286 794.9502865 936.38166589 781.4783667300001 936.38166589 759.63673288 922.54355286 746.16481228L548.30507522 381.82958002C541.38659137 375.09306272000003 532.31708802 371.72424829 523.24872915 371.72424829"  horiz-adv-x="1024" />

    
    <glyph glyph-name="you" unicode="&#58928;" d="M386.74999971-45.75a28.125 28.125 0 0 0-19.87499971 47.99999971L750.5 384 366.875 768.75A28.125 28.125 0 1 0 406.62500029 808.87499971l403.49999971-403.49999971a28.125 28.125 0 0 0 0-39.75000029L406.62500029-37.49999971a28.125 28.125 0 0 0-19.87500058-8.25000029z"  horiz-adv-x="1024" />

    


  </font>
</defs>
</svg>
