<?xml version="1.0" standalone="no"?>
<!DOCTYPE svg PUBLIC "-//W3C//DTD SVG 1.1//EN" "http://www.w3.org/Graphics/SVG/1.1/DTD/svg11.dtd" >
<!--
2013-9-30: Created.
-->
<svg>
<metadata>
Created by iconfont
</metadata>
<defs>

<font id="iconfont" horiz-adv-x="1024" >
  <font-face
    font-family="iconfont"
    font-weight="500"
    font-stretch="normal"
    units-per-em="1024"
    ascent="896"
    descent="-128"
  />
    <missing-glyph />
    
    <glyph glyph-name="shanchuguanbicha" unicode="&#59401;" d="M544 832C279.04 832 64 616.96 64 352S279.04-128 544-128 1024 87.04 1024 352 808.96 832 544 832zM544-64C314.24-64 128 122.24 128 352S314.24 768 544 768C773.76 768 960 581.76 960 352S773.76-64 544-64zM588.16 355.2l168.32 166.4c12.8 12.8 12.8 33.28 0 45.44-12.8 12.8-33.28 12.8-46.08 0L542.08 401.92 376.96 567.68c-12.8 12.8-33.28 12.8-45.44 0-12.8-12.8-12.8-33.28 0-45.44l164.48-165.76-174.72-172.8c-12.8-12.8-12.8-33.28 0-45.44 12.8-12.8 33.28-12.8 46.08 0l174.08 172.16 171.52-172.16c12.8-12.8 33.28-12.8 45.44 0 12.8 12.8 12.8 33.28 0 45.44L588.16 355.2z"  horiz-adv-x="1024" />

    
    <glyph glyph-name="xianjin" unicode="&#58896;" d="M835.571467 769.546983l-232.484935-351.969237 183.997618 0 0-77.713966-216.071104 0 0-108.040668 216.071104 0 0-78.115102-216.071104 0 0-155.326625L452.951139-1.618615 452.951139 153.709033 230.237755 153.709033l0 78.156034 222.713384 0L452.951139 339.898573 230.237755 339.898573l0 77.722152 187.66003 0L188.428533 769.584845l135.050836 0 160.362314-274.315646c8.905834-15.233959 19.001773-34.712593 30.315446-58.210773l2.367931 0c8.084119 18.890232 18.605753 39.167045 31.497365 60.70764L709.001793 769.618615l126.569674 0L835.571467 769.546983zM835.571467 769.546983"  horiz-adv-x="1024" />

    
    <glyph glyph-name="tongji5" unicode="&#59088;" d="M560.80191641 440.7092707c0 0 3.19488838 393.2907293 0 393.2907293 224.76038027 0 390.73481807-167.09264912 390.73481806-393.2907293C951.53673448 439.43131552 560.80191641 440.7092707 560.80191641 440.7092707L560.80191641 440.7092707 560.80191641 440.7092707zM918.94887529 360.0383455c0-235.30351113-189.45686602-426.03833232-423.32267724-426.03833232C261.92013154-65.99998682 72.46326552 124.73483525999995 72.46326552 360.0383455 72.46326552 595.3418566400001 261.92013154 786.07667783 495.62619805 786.07667783c11.02236416 0 21.72523886-0.79872188 32.58785918-1.59744375l0-376.5175664 388.17890771 0C917.99040958 392.94569326 918.94887529 375.53355323000005 918.94887529 360.0383455L918.94887529 360.0383455 918.94887529 360.0383455zM884.28433906 373.13738672L495.62619805 373.13738672l0 380.19168721c-215.81469317 0-390.73481807-176.03833623-390.73481807-393.2907293s174.9201249-393.2907293 390.73481807-393.2907293c215.81469317 0 390.73481807 176.03833623 390.73481807 393.2907293C886.36101699 402.37061367 884.28433906 373.13738672 884.28433906 373.13738672L884.28433906 373.13738672 884.28433906 373.13738672zM884.28433906 373.13738672"  horiz-adv-x="1024" />

    
    <glyph glyph-name="bianji" unicode="&#58880;" d="M815.9424 563.9808l-123.8208 123.9104 64.0448 64.0896c21.344 21.3568 55.5072 21.3568 72.5824 0l51.2384-51.2768c21.3504-21.3632 21.3504-55.5456 0-72.64L815.9424 563.9808 815.9424 563.9808zM457.2992 205.0816 333.4784 328.992l337.2928 333.2544 123.8208-123.8976L457.2992 205.0816 457.2992 205.0816zM235.2832 102.5408l76.8512 200.8128 123.8208-123.904L235.2832 102.5408 235.2832 102.5408zM866.0928 59.8144c17.088 0 29.9008-12.8128 29.9008-29.9008 0-17.0944-12.8128-29.9136-29.9008-29.9136L157.9072 0c-18.72 0-29.9072 12.8192-29.9072 29.9136 0 17.088 12.8128 29.9008 29.9072 29.9008L866.0928 59.8144 866.0928 59.8144zM865.8112 59.8144"  horiz-adv-x="1024" />

    
    <glyph glyph-name="yanzhengma" unicode="&#58951;" d="M819.579259 565.380741c-0.18963 0-0.379259 0-0.663704 0 0.094815 1.422222 0.18963 2.844444 0.284444 4.171852L819.2 569.552593c-27.401481 1.896296-54.897778 7.016296-78.506667 14.601481-7.68 2.275556-15.265185 4.835556-22.945185 7.585185-16.213333 4.740741-38.305185 14.222222-63.336296 27.780741-0.284444 0.094815-0.568889 0.284444-0.758519 0.379259-5.878519 3.223704-11.946667 6.542222-18.014815 10.145185-8.248889 4.740741-16.497778 9.765926-24.651852 15.075556-0.284444 0.18963-0.663704 0.379259-0.948148 0.568889-5.878519 3.792593-11.757037 7.68-17.540741 11.757037-3.792593 2.56-7.585185 5.30963-11.377778 8.059259-2.844444 2.085926-5.688889 4.077037-8.533333 6.162963-20.764444 15.54963-41.339259 32.995556-60.586667 51.768889-19.247407-18.773333-39.727407-36.219259-60.586667-51.768889-2.844444-2.180741-5.688889-4.077037-8.533333-6.162963-3.792593-2.74963-7.585185-5.499259-11.377778-8.059259-5.783704-4.077037-11.662222-7.964444-17.540741-11.757037-0.284444-0.18963-0.663704-0.379259-0.948148-0.568889-8.154074-5.30963-16.402963-10.334815-24.651852-15.075556-6.162963-3.602963-12.136296-7.016296-18.014815-10.145185-0.284444-0.094815-0.568889-0.284444-0.758519-0.379259-25.031111-13.463704-47.122963-22.945185-63.336296-27.780741-7.68-2.74963-15.36-5.30963-22.945185-7.585185-23.608889-7.585185-51.105185-12.705185-78.506667-14.601481l-0.094815 0c0.094815-1.327407 0.18963-2.74963 0.284444-4.171852-0.18963 0-0.379259 0-0.663704 0l-0.094815 0c0.758519-12.136296 1.611852-28.16 2.56-45.605926 0.18963 0 0.284444 0 0.474074 0 4.645926-64.948148 17.825185-157.392593 37.736296-211.626667 0.853333-2.37037 1.611852-4.835556 2.56-7.205926 0.379259-1.137778 0.948148-2.085926 1.327407-3.223704 13.937778-35.460741 30.90963-68.171852 50.346667-97.374815 47.122963-71.964444 109.226667-123.733333 179.674074-146.962963l0-0.379259c13.179259-4.361481 24.177778-7.016296 32.900741-8.722963 8.722963 1.706667 19.816296 4.361481 32.900741 8.722963l0 0.379259c70.447407 23.22963 132.551111 74.998519 179.674074 146.962963 19.437037 29.297778 36.408889 61.914074 50.346667 97.374815 0.379259 1.137778 0.948148 2.085926 1.327407 3.223704 0.853333 2.37037 1.611852 4.835556 2.56 7.205926 19.911111 54.328889 33.09037 146.678519 37.736296 211.626667 0.18963 0 0.379259 0 0.474074 0C818.062222 537.220741 818.915556 553.244444 819.579259 565.380741L819.579259 565.380741zM782.885926 530.583704c-0.379259-1.611852-0.663704-3.318519-0.758519-5.025185-4.266667-61.25037-16.402963-151.988148-35.84-205.842963-0.568889-1.422222-1.042963-2.939259-1.517037-4.456296-0.284444-0.948148-0.663704-1.896296-1.137778-3.034074-0.379259-0.948148-0.758519-1.896296-1.042963-2.56-14.506667-37.546667-32.521481-71.585185-53.191111-101.451852-42.382222-60.207407-96.237037-103.063704-155.591111-122.311111-1.422222-0.474074-2.844444-1.042963-4.171852-1.611852-5.973333-1.896296-11.946667-3.413333-17.635556-4.740741-5.688889 1.327407-11.567407 2.844444-17.540741 4.740741-1.327407 0.663704-2.74963 1.232593-4.171852 1.706667-59.448889 19.342222-113.208889 62.198519-155.591111 122.311111-20.66963 29.866667-38.58963 63.81037-53.096296 101.262222-0.379259 0.948148-0.758519 1.801481-1.327407 3.128889-0.379259 0.853333-0.663704 1.801481-0.948148 2.74963-0.474074 1.517037-1.042963 2.939259-1.422222 4.171852-19.531852 54.044444-31.668148 144.782222-35.934815 206.032593-0.094815 1.706667-0.379259 3.413333-0.758519 5.025185l-0.379259 6.637037c18.488889 2.844444 36.314074 6.921481 52.527407 12.041481 7.68 2.275556 15.54963 4.835556 23.893333 7.774815 19.152593 5.688889 42.856296 15.928889 68.740741 29.582222 0.474074 0.18963 0.853333 0.474074 1.232593 0.663704 6.257778 3.318519 12.61037 6.921481 18.868148 10.42963 8.154074 4.551111 16.687407 9.765926 26.168889 15.739259 0.284444 0.18963 0.758519 0.474074 0.948148 0.663704 6.257778 3.982222 12.420741 8.059259 18.299259 12.136296 3.413333 2.37037 6.921481 4.835556 10.334815 7.300741l1.896296 1.327407 3.034074 2.180741c1.991111 1.422222 3.887407 2.74963 5.688889 4.077037 13.558519 10.05037 26.832593 20.574815 39.442963 31.573333 12.705185-10.998519 25.884444-21.522963 39.348148-31.478519 1.991111-1.422222 3.887407-2.844444 5.878519-4.171852l3.223704-2.275556 1.137778-0.853333c3.602963-2.56 7.300741-5.214815 10.619259-7.395556 6.162963-4.266667 12.420741-8.343704 18.014815-11.946667l1.611852-1.042963c9.386667-5.973333 18.014815-11.188148 25.884444-15.644444 6.542222-3.792593 12.894815-7.300741 18.962963-10.524444 0.284444-0.18963 0.758519-0.379259 1.137778-0.568889 25.979259-13.748148 49.777778-24.082963 69.025185-29.771852 8.343704-2.939259 16.118519-5.499259 23.22963-7.585185 16.592593-5.214815 34.607407-9.386667 53.191111-12.231111L782.885926 530.583704zM662.281481 460.420741 484.598519 278.186667l-91.022222 93.297778c-6.257778 6.447407-16.497778 6.447407-22.85037 0-6.257778-6.447407-6.257778-16.971852 0-23.419259l102.4-104.96c3.128889-3.223704 7.300741-4.835556 11.377778-4.835556 4.171852 0 8.248889 1.611852 11.377778 4.835556l189.155556 193.896296c6.257778 6.447407 6.257778 16.971852 0 23.419259C678.779259 466.868148 668.634074 466.868148 662.281481 460.420741z"  horiz-adv-x="1024" />

    
    <glyph glyph-name="huodongzhongxin" unicode="&#58918;" d="M369.911376 586.551182c-0.109494 0.022513-0.220011 0.046049-0.330528 0.067538l-12.749372-26.334785c-0.794086-1.799996-2.216481-2.249227-3.967358-2.50096-91.295286-13.131065-181.733041-27.043936-272.736685-39.639812-18.485003-2.558265-33.067116-17.546631-33.067116-36.606733 0-10.316973 4.248767-19.642362 11.091616-26.321482 59.727313-58.304917 118.78129-117.817336 177.950901-175.699628l0-0.001023 20.850887-20.400632 0.022513-0.102331c0.490164-0.448208 0.873903-1.01205 1.108241-1.647523 0.334621-1.062192 0.119727-2.053776-0.051165-2.997264-17.09433-94.202499-28.927843-165.621085-46.6556-278.4365l-0.004093-0.033769 0.002047-0.01228c-0.040932-0.706081-0.063445-1.417279-0.063445-2.13257 0-20.316721 16.476253-36.792974 36.792974-36.792974 6.596232 0 12.788258 1.738597 18.142196 4.780887l0.331551 0.110517c80.374562 38.950104 154.436348 76.428693 243.366773 128.3359 1.019213 0.594541 2.026146 1.24434 3.088338 1.24434 0.821715 0 1.588171-0.236384 2.235924-0.644683 96.982822-50.182936 229.245148-118.732172 246.459205-127.507022l0.130983-0.01535c5.193279-2.802836 11.134595-4.3951 17.447371-4.3951 20.316721 0 36.792974 16.476253 36.792974 36.792974 0 4.668323-1.119497 8.203846-2.226714 12.632715-36.243459 144.978952-68.704778 290.930045-104.883769 435.95607-2.990101 9.282411-11.69946 16.000416-21.975501 16.000416-12.745279 0-23.082718-10.337439-23.082718-23.083741 0-1.166569 0-2.330068 0.25378-3.434216 35.19764-153.425322 65.599044-273.252431 98.622158-405.181159l0 0 3.966335-15.851013-14.764262 7.625678 0 0c-180.870394 93.432972-69.560262 36.18513-219.73454 113.457028-1.76111 1.000793-3.574409 1.791809-5.433756 2.580778-16.939811 6.534833-31.507598-1.948375-36.734646-4.754281-75.559906-40.558741-151.378709-82.433454-228.460272-119.499651 14.647605 94.611821 28.134781 170.814364 42.918485 263.591397 2.326998 14.868639-4.281513 25.111934-14.322194 35.154661-61.812811 61.819974-125.07053 122.343419-187.487092 183.581132 113.731274 15.565511 148.363026 20.7373 260.902148 39.603996 5.938246 0.994654 10.707876 1.63115 14.758122 3.246951 7.703449 3.666506 13.650905 9.776667 17.20894 17.058514 39.622416 79.905888 77.108169 160.516834 118.561279 239.548818 41.559535-83.341127 68.645426-133.413546 121.247458-245.251703 3.603061-7.66047 11.790534-11.561313 19.320021-13.821797l0.047072-0.023536 0.090051-0.017396c89.978291-13.059434 169.923064-25.039279 248.607124-36.679387l22.116717-3.665483-14.229073-13.982456 0.001023-0.002047c-37.326117-36.626175-35.536354-34.94079-139.870608-136.656403-14.010085-13.658068-5.640464-39.346123 15.256472-39.96727 6.470365-0.192382 12.643971 2.289136 16.835434 6.583952 57.062624 57.744145 109.155049 111.460558 163.213245 166.358889 0 0 4.985548 6.588045 6.117324 8.655124 12.133342 25.109887-5.272074 49.673329-26.066679 52.847625-91.112114 14.57188-182.688809 25.839505-273.823436 40.11565-1.12973 0.137123-2.369977 0.624217-2.911306 1.724271-41.180911 83.781148-81.637322 168.011528-123.403564 251.540943l-0.183172 0.182149c-6.129604 11.793604-18.457374 19.851117-32.664957 19.851117-14.496156 0-27.303856-8.260128-33.031301-20.574594-35.723619-76.813456-74.394361-150.867056-110.943788-224.564545L369.911376 586.548112zM234.14525 404.206204c51.256384-52.30118 64.565505-65.701374 92.549859-93.817736l1.524726-1.414209c3.966335-3.486404 9.166777-5.602601 14.861476-5.602601 12.43624 0 22.520923 10.083659 22.520923 22.520923 0 5.389754-1.896186 10.338463-5.056156 14.214746l-0.674359 0.792039c-33.273824 33.938973-59.46023 60.534701-91.76703 93.178169l-0.471744 0.23536c-3.975545 3.52529-9.204639 5.668093-14.934131 5.668093-12.435217 0-22.376637-10.085706-22.520923-22.520923C230.140029 414.113855 230.839971 408.475438 234.14525 404.206204L234.14525 404.206204z"  horiz-adv-x="1024" />

    
    <glyph glyph-name="plus-select-down" unicode="&#59152;" d="M260.45 511.957l251.524-251.524 251.523 251.524h-503.046zM260.45 511.957z"  horiz-adv-x="1024" />

    
    <glyph glyph-name="xianjindai" unicode="&#58914;" d="M672 345.6c128 0 230.4 102.4 230.4 230.4s-102.4 230.4-230.4 230.4-236.8-96-236.8-224c0-134.4 108.8-236.8 236.8-236.8zM601.6 563.2c-12.8 0-25.6 6.4-25.6 19.2 0 12.8 12.8 19.2 25.6 19.2h38.4L601.6 640c-12.8 12.8-12.8 25.6 0 32s19.2 6.4 32 0l38.4-38.4 38.4 38.4c12.8 12.8 25.6 12.8 32 0s6.4-19.2 0-32l-38.4-38.4h25.6c12.8 0 25.6-6.4 25.6-19.2 0-12.8-12.8-19.2-25.6-19.2h-38.4v-19.2h44.8c12.8 0 25.6-6.4 25.6-19.2 0-12.8-12.8-19.2-25.6-19.2h-38.4v-25.6c0-12.8-6.4-25.6-19.2-25.6-12.8 0-19.2 12.8-19.2 25.6v19.2h-57.6c-12.8 0-25.6 6.4-25.6 19.2 0 12.8 12.8 19.2 25.6 19.2h51.2v25.6h-51.2zM1017.6 294.4c-12.8 25.6-32 38.4-44.8 38.4h-25.6l-134.4-64c0-44.8-32-83.2-76.8-83.2H473.6c-12.8 0-19.2 12.8-19.2 19.2 0 12.8 12.8 19.2 19.2 19.2h249.6c19.2 0 25.6 12.8 32 32 0 38.4-32 70.4-70.4 70.4H537.6c0 6.4-6.4 12.8-6.4 12.8l-25.6 25.6c-32 32-70.4 44.8-121.6 44.8H204.8v25.6c0 12.8-6.4 19.2-19.2 19.2H19.2c-6.4 0-19.2-6.4-19.2-19.2v-345.6c0-6.4 6.4-12.8 19.2-12.8H192c12.8 0 19.2 6.4 19.2 19.2V128l326.4-172.8c38.4-12.8 83.2 0 108.8 19.2l326.4 230.4 6.4 6.4c38.4 19.2 51.2 51.2 38.4 83.2z"  horiz-adv-x="1024" />

    
    <glyph glyph-name="zhanghaoguanli" unicode="&#58887;" d="M970.667 202.666v-64l-57.6-12.8-19.2-38.4 32-51.2-44.8-44.8-51.2 32-38.4-19.2-12.8-57.6h-64l-12.8 57.6-38.4 19.2-51.2-32-44.8 44.8 32 51.2-19.2 38.4-57.6 12.8v64l57.6 12.8 19.2 38.4-32 51.2 44.8 44.8 51.2-32 38.4 19.2 12.8 57.6h64l12.8-57.6 38.4-19.2 51.2 32 44.8-44.8-32-51.2 19.2-38.4 57.6-12.8zM746.667 285.866c-64 0-108.8-51.2-108.8-108.8 0-64 51.2-115.2 108.8-115.2 64 0 115.2 51.2 115.2 115.2-6.4 57.6-51.2 102.4-115.2 108.8zM458.667 330.666c-179.2 0-320-140.8-320-320h-64c0 166.4 102.4 307.2 249.6 358.4-70.4 44.8-121.6 128-121.6 217.6 0 140.8 115.2 256 256 256s256-115.2 256-256-115.2-256-256-256zM458.667 778.666c-108.8 0-192-83.2-192-192s83.2-192 192-192 192 83.2 192 192-83.2 192-192 192z"  horiz-adv-x="1024" />

    
    <glyph glyph-name="chanpin" unicode="&#59138;" d="M500.75 445.875c-16.875 0-39.375 5.625-50.625 11.25l-281.25 140.625c-16.875 5.625-28.125 22.5-28.125 39.375 0 16.875 11.25 33.75 28.125 45L455.75 822.75c11.25 5.625 33.75 11.25 50.625 11.25 16.875 0 39.375-5.625 50.625-11.25l281.25-140.625c16.875-11.25 28.125-22.5 28.125-39.375 0-16.875-11.25-33.75-28.125-45l-281.25-140.625c-16.875-11.25-33.75-11.25-56.25-11.25zM191.375 637.125l281.25-140.625c5.625-5.625 16.875-5.625 28.125-5.625s22.5 0 33.75 5.625l286.875 146.25-281.25 140.625c-5.625 0-16.875 5.625-33.75 5.625-11.25 0-22.5 0-33.75-5.625l-281.25-146.25zM444.5-66c-11.25 0-22.5 0-28.125 5.625l-253.125 129.375c-28.125 16.875-50.625 45-50.625 73.125V496.5c0 22.5 16.875 45 45 45 11.25 0 22.5 0 28.125-5.625l253.125-129.375c28.125-16.875 50.625-45 50.625-73.125v-354.375c0-28.125-22.5-45-45-45z m-11.25 50.625h5.625V339c0 5.625-11.25 22.5-28.125 33.75L163.25 496.5h-5.625v-354.375c0-5.625 11.25-22.5 28.125-33.75l247.5-123.75z m146.25-50.625c-22.5 0-45 16.875-45 45V333.375c0 28.125 22.5 61.875 50.625 73.125l253.125 135c11.25 5.625 22.5 5.625 28.125 5.625 22.5 0 45-16.875 45-45v-354.375c0-28.125-22.5-61.875-50.625-73.125l-253.125-135c-5.625-5.625-16.875-5.625-28.125-5.625z m281.25 562.5L607.625 367.125c-11.25-11.25-22.5-28.125-22.5-33.75v-354.375h5.625l253.125 135c16.875 5.625 28.125 22.5 28.125 33.75V502.125c-5.625 0-5.625-5.625-11.25-5.625z"  horiz-adv-x="1024" />

    
    <glyph glyph-name="tuichu" unicode="&#59005;" d="M514.304-62.977c-57.876 0-114.084 10.893-166.954 32.489-51.101 20.758-96.927 50.515-136.313 88.434-39.386 37.919-70.293 82.105-91.922 131.269-22.363 50.902-33.711 104.984-33.711 160.737 0 66.712 16.989 132.941 49.098 191.619 31.041 56.686 76.133 106.462 130.439 143.931 15.086 10.412 36.047 7.037 46.828-7.455 10.781-14.493 7.344-34.642-7.743-44.989-45.894-31.749-83.979-73.717-110.146-121.565-27.47-50.162-41.388-104.502-41.388-161.541 0-93.061 37.65-180.563 106.007-246.342 68.324-65.812 159.177-102.059 255.805-102.059 96.595 0 187.482 36.248 255.839 102.06 68.357 65.78 105.974 153.281 105.974 246.342 0 56.975-13.885 111.411-41.388 161.54-26.167 47.816-64.285 89.816-110.179 121.502-15.054 10.346-18.558 30.495-7.744 44.989 10.814 14.492 31.743 17.898 46.795 7.454 54.339-37.469 99.498-87.245 130.507-143.93 32.142-58.678 49.131-124.907 49.131-191.619 0-55.754-11.348-109.836-33.744-160.769-21.597-49.166-52.537-93.351-91.923-131.269-39.385-37.919-85.212-67.643-136.313-88.499-52.903-21.466-109.078-32.327-166.954-32.327h-0.001v-0.002z m10.08 448.084c-18.524 0-33.544 14.397-33.544 32.264V799.836c0 17.803 15.02 32.296 33.544 32.296 18.525 0 33.578-14.493 33.578-32.296v-382.465c0-17.867-15.052-32.264-33.578-32.264z"  horiz-adv-x="1024" />

    
    <glyph glyph-name="mima" unicode="&#58929;" d="M657.6 439.2c-8.9 0-16.1 7.2-16.1 16.1 0 1.7 0.3 3.3 0.7 4.8V564c0 71-57.7 128.7-128.7 128.7S384.7 634.9 384.7 564v-107.9c0-8.9-7.2-16.1-16.1-16.1s-16.1 7.2-16.1 16.1V564c0 88.8 72.2 161 161 161s161-72.2 161-161v-107.9c-0.1-9.3-7.6-16.9-16.9-16.9zM513.5 185c-8.9 0-16.1 7.2-16.1 16.1V313.70000000000005c0 8.9 7.2 16.1 16.1 16.1 8.9 0 16.1-7.2 16.1-16.1v-112.6c0-8.9-7.2-16.1-16.1-16.1zM679.5 43.299999999999955H347.4c-68.1 0-123.6 55.4-123.6 123.6v181c0 68.1 55.4 123.6 123.6 123.6h332.1c68.1 0 123.6-55.4 123.6-123.6v-181c0-68.1-55.4-123.6-123.6-123.6zM347.4 439.2c-50.4 0-91.3-41-91.3-91.3v-181c0-50.4 41-91.3 91.3-91.3h332.1c50.4 0 91.3 41 91.3 91.3v181c0 50.4-41 91.3-91.3 91.3H347.4z"  horiz-adv-x="1024" />

    
    <glyph glyph-name="yonghu" unicode="&#58930;" d="M503.9 464.6c-91.1 0-165.2 74.1-165.2 165.2S412.8 795 503.9 795s165.2-74.1 165.2-165.2S595 464.6 503.9 464.6z m0 298.2c-73.3 0-133-59.7-133-133s59.7-133 133-133 133 59.7 133 133-59.6 133-133 133zM707.2 21.3H316.7c-32.1 0-58.3 26.1-58.3 58.3v84.2c0 36.6 7.3 71.9 21.6 104.7 13.9 31.8 33.7 59.8 59 83.4 51.4 48 119 71.8 190.4 66.9 64-4.4 123.5-32.6 167.5-79.5 44.2-47.1 68.6-108.7 68.6-173.4 0-0.6 0-1.2-0.1-1.8v-84.5c0-32.2-26.1-58.3-58.2-58.3zM511.3 387.2c-56.4 0-109.3-20.6-150.2-58.9-22-20.6-39.3-45.1-51.5-72.8-12.6-28.7-18.9-59.6-18.9-91.8v-84.2c0-14.3 11.7-26 26-26h390.4c14.3 0 26 11.7 26 26v86.3c0 0.6 0 1.2 0.1 1.7-0.4 55.8-21.6 108.9-59.8 149.6-38.4 41-90.3 65.6-146.2 69.4-5.3 0.5-10.6 0.7-15.9 0.7z m238.1-221.4zM673.5 176h-87c-8.9 0-16.1 7.2-16.1 16.1s7.2 16.1 16.1 16.1h87c8.9 0 16.1-7.2 16.1-16.1s-7.2-16.1-16.1-16.1zM673.5 102.9H503.9c-8.9 0-16.1 7.2-16.1 16.1s7.2 16.1 16.1 16.1h169.6c8.9 0 16.1-7.2 16.1-16.1s-7.2-16.1-16.1-16.1z"  horiz-adv-x="1024" />

    
    <glyph glyph-name="jifen" unicode="&#58908;" d="M511.99544889 2.85809777999998c-211.27850667 0-382.57208889 74.92266667-383.17283556 167.24423111-19.92590222 5.31342222-39.31932445 11.02734222-57.78318222 17.00408889-0.79758222-5.44768-1.12753778-10.89080889-1.12753778-16.47274667 0-126.32974222 197.92440889-228.74453333 442.08355556-228.74453333 244.15573333 0 442.08128 102.41479111 442.08128 228.74453333 0 7.10656-0.59847111 14.21653333-1.86140444 21.12284444a1039.61258667 1039.61258667 0 0 0-57.1858489-17.73454222l0.13312-3.38716444c0.00227555-92.65493333-171.55640889-167.77671111-383.16714666-167.77671111z m0 213.46986667c-211.27850667 0-382.57208889 74.79068445-383.17283556 167.24536888-19.92590222 5.31342222-39.31932445 10.89080889-57.78318222 17.00295112-0.79758222-5.44540445-1.12753778-11.02506667-1.12753778-16.60359112 0-126.19662222 197.92440889-228.61368889 442.08355556-228.61368888 244.15573333 0 442.08128 102.41820445 442.08128 228.61368888 0 7.17141333-0.59847111 14.21084445-1.86140444 21.25368889-18.26588445-6.31011555-37.39306667-12.21973333-57.1858489-17.79939555l0.13312-3.45429334c0.00227555-92.59008-171.55640889-167.64359111-383.16714666-167.64359111zM128.82261333 597.44142222c0 92.59008 171.56096 167.64131555 383.17283556 167.64131556 211.61073778 0 383.16942222-75.05123555 383.16942222-167.64131556 0-92.58666667-171.55868445-167.64017778-383.16942222-167.64017777-211.61187555 0-383.17283555 75.05351111-383.17283556 167.64017777z m-58.90958222 0c0-126.32746667 197.92440889-228.61368889 442.08355556-228.61368889 244.15573333 0 442.08128 102.28622222 442.08128 228.61368889s-197.92554667 228.61368889-442.08241778 228.61368889c-244.15800889 0.00227555-442.08241778-102.28622222-442.08241778-228.61368889z"  horiz-adv-x="1024" />

    
    <glyph glyph-name="guanggao" unicode="&#58973;" d="M104.6 673.7V180h814.8V673.7H104.6zM873.4 226H150.6V627.7h722.8V226zM351.7 378.7h75.1l27.6-89.4H504l-91.2 275.5h-47.2l-90.4-275.5H324l27.7 89.4z m60.9 46h-46.7l23.4 75.7 23.3-75.7zM755.8 424.9v3.8c0 74.9-61 135.9-135.9 135.9h-95.5V289h95.5c74.9 0 135.9 61 135.9 135.9z m-185.4 93.7h49.5c49.6 0 89.9-40.3 89.9-89.9v-3.8c0-49.6-40.3-89.9-89.9-89.9h-49.5V518.6zM127.3 140.3h769.1v-46H127.3z"  horiz-adv-x="1024" />

    
    <glyph glyph-name="guanggao2" unicode="&#58966;" d="M870.4-128h-716.8c-84.48 0-153.6 69.12-153.6 153.6v716.8c0 84.48 69.12 153.6 153.6 153.6h716.8c84.48 0 153.6-69.12 153.6-153.6v-716.8c0-84.48-69.12-153.6-153.6-153.6zM385.024 480.768l-23.552-140.288h48.128l-23.552 140.288h-1.024z m126.976 288.768c-212.992 0-385.536-172.544-385.536-385.536s172.544-385.536 385.536-385.536 385.536 172.544 385.536 385.536-172.544 385.536-385.536 385.536z m-83.456-551.936l-8.704 57.856h-68.608l-8.704-57.856h-90.112l78.848 330.24h108.032l80.384-330.24h-91.136z m326.144 102.912c-1.536-19.968-5.632-37.376-12.8-52.736-7.168-15.36-17.408-27.648-31.232-36.352-13.824-9.216-33.28-13.824-58.368-13.824H527.36v330.24h124.928c25.088 0 44.544-4.608 58.368-13.824 13.824-9.216 24.064-21.504 31.232-36.352 7.168-15.36 11.264-32.768 12.8-52.736 1.536-19.968 2.56-40.448 2.56-62.464 0-20.992-1.024-41.984-2.56-61.952z m-92.672 147.456c-2.56 7.168-6.656 12.288-11.264 14.336-5.12 2.56-11.776 3.584-19.968 3.584h-16.896v-206.336h16.896c8.192 0 14.848 1.024 19.968 3.584 5.12 2.56 8.704 7.168 11.264 14.336 2.56 7.168 4.096 17.92 5.12 31.232 0.512 13.312 1.024 31.232 1.024 53.76 0 22.016-0.512 39.936-1.024 53.76-1.024 13.824-2.56 24.576-5.12 31.744z"  horiz-adv-x="1024" />

    
    <glyph glyph-name="shangshengxiajiangzuikuai" unicode="&#58895;" d="M128 192a64 64 0 0 0 64-64v-128a64 64 0 0 0-128 0v128a64 64 0 0 0 64 64zM384 320a64 64 0 0 0 64-64v-256a64 64 0 0 0-128 0v256a64 64 0 0 0 64 64zM640 256a64 64 0 0 0 64-64v-192a64 64 0 0 0-128 0v192a64 64 0 0 0 64 64zM896 448a64 64 0 0 0 64-64v-384a64 64 0 0 0-128 0V384a64 64 0 0 0 64 64zM1001.792 524.1600000000001l-222.72 222.72a12.8 12.8 0 0 0 9.024 21.76h222.72c7.04 0 12.8-5.696 12.8-12.8v-222.72a12.8 12.8 0 0 0-21.824-8.96zM316.48 509.632l-236.928-240.64a35.2 35.2 0 0 0-50.112 49.344l239.168 243.008a67.2 67.2 0 0 0 95.04 0.768l194.56-199.616 366.848 351.36a35.2 35.2 0 1 0 48.64-50.816L604.672 309.504a67.2 67.2 0 0 0-94.592 1.6L316.48 509.632z"  horiz-adv-x="1024" />

    
    <glyph glyph-name="guanjiancituozhanzhushou" unicode="&#58898;" d="M256 192a192 192 0 1 1 0 384 192 192 0 0 1 0-384z m0-64a256 256 0 1 0 0 512 256 256 0 0 0 0-512zM864 640a96 96 0 1 1 0 192 96 96 0 0 1 0-192z m0-64a160 160 0 1 0 0 320 160 160 0 0 0 0-320zM864-64a96 96 0 1 1 0 192 96 96 0 0 1 0-192z m0-64a160 160 0 1 0 0 320 160 160 0 0 0 0-320zM415.488 490.112l332.544 192 32-55.424-332.544-192zM415.488 235.904l332.544-192 32 55.424-332.544 192zM256 320a64 64 0 1 1 0 128 64 64 0 0 1 0-128z m0-64a128 128 0 1 0 0 256 128 128 0 0 0 0-256z"  horiz-adv-x="1024" />

    
    <glyph glyph-name="guanli" unicode="&#58892;" d="M615.359375 546.66145833h-208.125c-14.0625 0-24.609375 11.25-24.609375 24.609375v208.125c0 14.0625 11.25 24.609375 24.609375 24.609375h208.125c14.0625 0 24.609375-11.25 24.609375-24.609375v-207.421875c0-14.0625-11.25-25.3125-24.609375-25.3125z m0-540.703125h-208.125c-14.0625 0-24.609375 11.25-24.609375 24.609375v208.125c0 14.0625 11.25 24.609375 24.609375 24.609375h208.125c14.0625 0 24.609375-11.25 24.609375-24.609375v-208.125c0-13.359375-11.25-24.609375-24.609375-24.609375z m-199.6875 34.453125h189.84375v189.84375h-189.84375v-189.84375z m-319.921875 0h189.84375v189.84375h-189.84375v-189.84375z m319.921875 542.109375h189.84375v189.84375h-189.84375v-189.84375z m-120.9375-576.5625h-208.125c-14.0625 0-24.609375 11.25-24.609375 24.609375v208.125c0 14.0625 11.25 24.609375 24.609375 24.609375h208.125c14.0625 0 24.609375-11.25 24.609375-24.609375v-208.125c0.703125-13.359375-10.546875-24.609375-24.609375-24.609375z m642.65625 0h-208.125c-14.0625 0-24.609375 11.25-24.609375 24.609375v208.125c0 14.0625 11.25 24.609375 24.609375 24.609375h208.125c14.0625 0 24.609375-11.25 24.609375-24.609375v-208.125c0-13.359375-11.25-24.609375-24.609375-24.609375z m-198.984375 34.453125h189.140625v189.140625h-189.140625v-189.140625z m94.921875 194.765625c-14.0625 0-10.546875-9.84375-10.546875 3.515625v155.390625h-620.859375v-155.390625c0-14.0625 2.8125-3.515625-10.546875-3.515625s-24.609375-9.84375-24.609375 3.515625v166.640625c0 14.0625 11.25 24.609375 24.609375 24.609375h641.953125c14.0625 0 24.609375-11.25 24.609375-24.609375v-166.640625c0-13.359375-11.25-3.515625-24.609375-3.515625z m-319.21875 0c-12.65625 0-21.796875-9.84375-21.796875 3.515625v333.28125c0 14.0625 9.84375 3.515625 21.796875 3.515625 12.65625 0 14.765625 9.84375 14.765625-3.515625v-333.28125c0.703125-13.359375-2.8125-3.515625-14.765625-3.515625z"  horiz-adv-x="1024" />

    
    <glyph glyph-name="guanggao1" unicode="&#58943;" d="M512 384m-512 0a512 512 0 1 1 1024 0 512 512 0 1 1-1024 0ZM219.428571 578.304v-354.523429h585.142858V578.304H219.428571z m552.118858-321.499429H252.416V545.28h519.094857v-288.475429zM396.982857 366.482286h53.979429l19.821714-64.182857h35.620571l-65.462857 197.851428h-33.938285l-64.914286-197.851428h35.072l19.821714 64.182857z m43.739429 33.024h-33.536l16.822857 54.381714 16.713143-54.381714z m246.491428 0.146285v2.706286a97.755429 97.755429 0 0 1-97.645714 97.645714h-68.534857v-197.924571h68.534857a97.718857 97.718857 0 0 1 97.645714 97.572571z m-133.156571 67.291429h35.510857c35.657143 0 64.658286-28.928 64.658286-64.585143v-2.706286c0-35.584-29.001143-64.548571-64.658286-64.548571h-35.510857v131.84zM235.849143 195.291429h552.301714v-33.024H235.849143v33.024z"  horiz-adv-x="1024" />

    


  </font>
</defs>
</svg>
