<?xml version="1.0" standalone="no"?>
<!DOCTYPE svg PUBLIC "-//W3C//DTD SVG 1.1//EN" "http://www.w3.org/Graphics/SVG/1.1/DTD/svg11.dtd" >
<!--
2013-9-30: Created.
-->
<svg>
<metadata>
Created by iconfont
</metadata>
<defs>

<font id="iconfont" horiz-adv-x="1024" >
  <font-face
    font-family="iconfont"
    font-weight="500"
    font-stretch="normal"
    units-per-em="1024"
    ascent="896"
    descent="-128"
  />
    <missing-glyph />
    
    <glyph glyph-name="fanhui" unicode="&#58884;" d="M629.376 652 330.624 344.032 330.624 344.032 288 300 330.624 256.032 330.688 256.032 629.376-51.936 672-7.968 373.312 300 672 607.968Z"  horiz-adv-x="1024" />

    
    <glyph glyph-name="xiugai" unicode="&#58949;" d="M468.096 480.64 334.72 614.016 366.272 645.504 189.248 822.592 64 697.28 241.024 520.256 272.512 551.808 405.824 418.432ZM906.688 42.048c18.048 27.776-0.832 85.44-0.832 85.44l-204.224 204.224c-116.864-9.216-185.856-157.952-185.856-157.952s183.744-191.232 214.976-214.976 84.032-8.64 84.032-8.64S888.64 14.336 906.688 42.048zM749.056 0.128l-166.656 166.656c-9.6 9.472-9.6 25.024-0.064 34.56 9.472 9.472 25.088 9.472 34.56 0l166.656-166.656c9.472-9.472 9.472-25.088 0-34.56C774.08-9.408 758.592-9.408 749.056 0.128zM824.64 75.712l-166.656 166.656c-9.472 9.536-9.472 25.152 0 34.56 9.536 9.6 25.024 9.6 34.56 0l166.656-166.656c9.472-9.472 9.472-25.024 0-34.624C849.6 66.112 834.176 66.176 824.64 75.712zM386.304 140.736c0.384 3.392 1.28 6.656 2.88 8.832 4.608 6.08 160.448 192.448 271.68 219.968 79.104-25.344 169.28-6.72 232.128 56.064 52.288 52.288 73.92 123.584 65.152 191.616l-158.592-165.568-159.232 26.688L590.144 622.144l175.424 191.936c-69.568 10.624-143.04-10.88-196.608-64.448-66.688-66.624-83.648-164.032-51.136-246.4C510.464 467.776 487.936 417.152 428.544 353.792c-122.88-131.008-122.88-131.008-122.88-131.008s-1.28-1.664-4.032-3.328c-48.704 16.32-104.576 5.248-143.36-33.472-54.592-54.592-54.592-143.232 0-197.824s143.104-54.592 197.76 0.064C397.312 29.504 407.296 90.048 386.304 140.736zM201.664 26.752c-31.552 31.488-31.552 82.688 0 114.24 31.552 31.488 82.688 31.488 114.176-0.064s31.552-82.688 0-114.176C284.352-4.8 233.216-4.8 201.664 26.752z"  horiz-adv-x="1024" />

    
    <glyph glyph-name="zhucedengluyanzhengma" unicode="&#58920;" d="M512-161.47489l-7.959218 2.896774c-152.172297 55.387882-275.543755 165.759182-347.38765 310.784259-71.535684 144.400463-85.033485 308.712794-38.007236 462.669848l5.021485 16.43963 17.19019 0.033791c130.214563 0.253941 253.541991 43.009266 356.648317 123.645879l14.356901 11.227688 14.341542-11.249192c102.785827-80.621254 226.212579-123.36941 356.939121-123.624376l17.19019-0.033791 5.020461-16.43963c47.027273-153.957054 33.528448-318.269385-38.006212-462.669848C795.502973 7.181066 672.131514-103.190234 519.960242-158.578116L512-161.47489zM158.461441 585.081915C79.306493 296.749961 231.908852-5.361383 512-111.879533c280.092172 106.519174 432.693507 408.62847 353.538559 696.9594-65.102162 1.911728-128.931545 13.780413-189.993172 35.348019-58.607202 20.701339-113.600861 49.931215-163.722532 86.997434-50.193348-37.029357-105.139904-66.235682-163.580202-86.923709C287.200482 598.893046 223.43868 587.00081 158.461441 585.081915zM469.433084 131.280558c-5.956358 0-11.910668 2.272161-16.456013 6.816482L321.346375 269.727735c-9.087618 9.087618-9.087618 23.823383 0 32.911002 9.088642 9.087618 23.823383 9.087618 32.912026 0L469.434108 187.463031l246.851456 246.828929c9.088642 9.088642 23.823383 9.087618 32.912026-0.001024 9.087618-9.088642 9.087618-23.823383-0.001024-32.911002L485.888073 138.096016C481.343752 133.552719 475.387394 131.280558 469.433084 131.280558z"  horiz-adv-x="1024" />

    
    <glyph glyph-name="xia" unicode="&#58892;" d="M492.516 136.523l-450.066 450.066c-10.342 10.254-10.342 27.12 0 37.484 10.364 10.32 27.207 10.32 37.506 0l432.044-432.066 432.066 432.044c10.342 10.32 27.12 10.32 37.506 0 10.342-10.364 10.342-27.229 0-37.484l-450.044-450.044c-5.346-5.367-12.48-7.789-19.527-7.593-7.047-0.196-14.138 2.226-19.484 7.593z"  horiz-adv-x="1024" />

    
    <glyph glyph-name="yonghu2" unicode="&#58912;" d="M510.189 343.396c-5.869 0-11.564-0.611-17.367-0.829-126.611 0.654-225.622 106.494-225.622 241.571l481.527 0c0-61.658-24.087-120-67.789-164.291-8.487-8.574-8.4-22.386 0.174-30.851s22.407-8.4 30.851 0.196c51.862 52.516 80.422 121.767 80.422 194.967-0.022 154.298-127.593 279.84-284.4 279.84-156.807 0-284.422-125.542-284.422-279.884 0-116.814 63.491-214.909 156.742-259.44-177.207-52.451-306.174-209.324-306.174-394.167 0-13.898 14.204-24.393 27.142-21.164 1.702-0.436 3.491-0.654 5.324-0.654l817.833 0c12.066 0 21.818 9.753 21.818 21.818-0.022 227.651-195.622 412.887-436.058 412.887z"  horiz-adv-x="1024" />

    
    <glyph glyph-name="tuichu" unicode="&#58937;" d="M584.470443 218.082c-3.66 0-6.515 0-9.36 0-97.805 0-195.607-0.01-293.414 0-14.5 0.005-23.95 6.65-26.28 18.54-0.458 2.375-0.415 4.87-0.415 7.3-0.018 86.915-0.02 173.825-0.012 260.739 0.003 16.485 8.93 25.255 25.672 25.255 98.247 0.005 196.497 0.005 294.749 0.005 2.645 0 5.31 0 9.06 0 0 2.82 0 5.362 0 7.912 0 77.352-0.01 154.71 0.01 232.069 0 10.645 5.075 19.135 13.67 22.387 9.89 3.745 18.665 2.02 26.12-5.857 4.275-4.517 8.93-8.672 13.32-13.065 55.385-55.265 110.76-110.555 166.13-165.82 71.12-70.965 142.245-141.912 213.365-212.874 11.84-11.802 11.905-24.252 0.205-35.927-101.78-101.605-203.549-203.219-305.359-304.784-28.955-28.885-58.065-57.595-86.995-86.505-7.445-7.45-15.75-10.715-25.915-6.855-9.885 3.75-14.54 11.53-14.54 23.765-0.015 74.905-0.01 149.82-0.01 224.724C584.470443 211.737 584.470443 214.377 584.470443 218.082zM401.643443 789.828c0-29.415 0-58.215 0-87.827-2.882 0-5.477 0-8.07 0-74.465 0-148.93 0.01-223.394-0.005-47.187-0.007-81.935-34.827-81.937-82.107-0.007-163.602 0.293-327.202-0.197-490.791-0.135-43.285 32.795-74.47 63.24-80.165 6.727-1.245 13.677-1.81 20.525-1.825 73.797-0.13 147.597-0.08 221.397-0.08 2.622 0 5.247 0 8.302 0 0-29.325 0-58.115 0-87.325-1.05-0.21-2.275-0.68-3.503-0.68-78.467 0-156.942-0.8-235.389 0.34-76.67 1.1-144.565 59.285-159.197 134.595-2.065 10.61-3.075 21.595-3.087 32.405-0.19 165.385-0.627 330.762 0.102 496.134 0.305 69.077 34.625 118.665 94.56 150.892 21.145 11.375 44.502 16.512 68.577 16.572 77.797 0.21 155.595 0.08 233.394 0.075C398.281443 790.035 399.593443 789.92 401.643443 789.828z"  horiz-adv-x="1027" />

    
    <glyph glyph-name="rili" unicode="&#59018;" d="M992-96l-960 0 0 960 960 0 0-960zM73.738-54.262l876.524 0 0 876.524-876.524 0 0-876.524zM52.88 561.382l918.262 0 0-41.738-918.262 0 0 41.738zM294.604 753.12l104.334 0 0-104.356-104.334 0 0 104.356zM624.189 753.12l104.334 0 0-104.356-104.334 0 0 104.356zM281.556 431.302l118.647 0 0-378.414-53.193 0 0 335.454-65.454 0 0 42.96zM533.142 167.433l53.193 0c0-46.364 21.142-70.909 63.404-73.636 47.738 0 71.586 30.676 71.586 92.051-1.374 54.524-23.193 82.494-65.454 83.869-30-1.374-49.789-14.313-59.324-38.858l-55.222 12.284 22.494 188.182 192.284 0 0-47.04-145.222 0-14.313-96.131 2.051 0c12.284 19.091 34.08 29.324 65.454 30.676 69.556-4.102 106.364-49.091 110.466-135.011-2.749-87.273-45.011-131.586-126.829-132.96-77.76-0.022-115.942 38.858-114.567 116.574z"  horiz-adv-x="1024" />

    
    <glyph glyph-name="shuju4" unicode="&#59025;" d="M706.56 529.92c-15.36 0-30.72-2.56-46.08-5.12l0 128c0 0 0 0 0 0 0 0 0 0 0 0 0 0 0 0 0 0 0 76.8-148.48 117.76-296.96 117.76C217.6 773.12 66.56 732.16 66.56 655.36l0-2.56L66.56 128c0-2.56 0-7.68 2.56-10.24L66.56 117.76c0-76.8 148.48-117.76 296.96-117.76 58.88 0 117.76 7.68 166.4 20.48 48.64-38.4 110.08-61.44 174.08-61.44 158.72 0 286.72 128 286.72 286.72S865.28 529.92 706.56 529.92zM363.52 721.92c153.6 0 245.76-43.52 245.76-66.56s-92.16-66.56-245.76-66.56-245.76 43.52-245.76 66.56S212.48 721.92 363.52 721.92zM117.76 586.24c56.32-33.28 151.04-48.64 245.76-48.64 94.72 0 189.44 17.92 245.76 48.64L609.28 512c-51.2-17.92-97.28-51.2-130.56-94.72-33.28-5.12-71.68-10.24-115.2-10.24-153.6 0-245.76 43.52-245.76 66.56L117.76 586.24zM117.76 407.04c56.32-33.28 151.04-48.64 245.76-48.64 28.16 0 56.32 2.56 81.92 5.12-15.36-35.84-25.6-76.8-25.6-117.76 0-5.12 0-7.68 0-12.8-17.92-2.56-35.84-2.56-56.32-2.56-153.6 0-245.76 43.52-245.76 66.56L117.76 407.04zM117.76 117.76 117.76 117.76c0 2.56 0 7.68 0 10.24l0 99.84c56.32-33.28 151.04-48.64 245.76-48.64 20.48 0 43.52 0 64 2.56 10.24-46.08 30.72-87.04 58.88-120.32-35.84-7.68-76.8-10.24-122.88-10.24C212.48 48.64 117.76 92.16 117.76 117.76zM706.56 7.68c-130.56 0-235.52 104.96-235.52 235.52 0 110.08 76.8 204.8 181.76 227.84 2.56 0 5.12 0 7.68 2.56l0 0c15.36 2.56 30.72 5.12 46.08 5.12 130.56 0 235.52-104.96 235.52-235.52C942.08 115.2 837.12 7.68 706.56 7.68zM793.6 371.2 762.88 389.12 711.68 291.84 660.48 389.12 629.76 371.2 673.28 289.28 599.04 289.28 599.04 240.64 691.2 240.64 691.2 220.16 599.04 220.16 599.04 179.2 691.2 179.2 691.2 110.08 737.28 110.08 737.28 179.2 821.76 179.2 821.76 220.16 737.28 220.16 737.28 240.64 821.76 240.64 821.76 289.28 750.08 289.28Z"  horiz-adv-x="1024" />

    
    <glyph glyph-name="tongji5" unicode="&#59088;" d="M567.525736 448.522548c0 0 3.635073 447.477452 0 447.477452 255.727366 0 444.569393-190.114303 444.569393-447.477452C1012.095129 447.068519 567.525736 448.522548 567.525736 448.522548L567.525736 448.522548 567.525736 448.522548zM975.017387 356.736962c0-267.723106-215.559812-484.736947-481.647135-484.736947C227.464683-127.999985 11.904871 89.013857 11.904871 356.736962 11.904871 624.460068 227.464683 841.473909 493.370252 841.473909c12.541001 0 24.718494-0.908768 37.077742-1.817536l0-428.39332 441.661335 0C973.926866 394.178211 975.017387 374.367065 975.017387 356.736962L975.017387 356.736962 975.017387 356.736962zM935.576848 371.64076 493.370252 371.64076l0 432.573653c-245.549162 0-444.569393-200.292507-444.569393-447.477452s199.020231-447.477452 444.569393-447.477452c245.549162 0 444.569393 200.292507 444.569393 447.477452C937.939646 404.901676 935.576848 371.64076 935.576848 371.64076L935.576848 371.64076 935.576848 371.64076zM935.576848 371.64076"  horiz-adv-x="1024" />

    
    <glyph glyph-name="zhaopian2" unicode="&#59103;" d="M929.700799 112.059448c2.189875 5.970992 3.387144 12.418844 3.387144 19.142989L933.087942 636.797563c0 30.908964-25.031093 55.873542-55.909357 55.873542L146.820392 692.671105c-30.705326 0-55.909357-25.015743-55.909357-55.873542l0-505.594103c0-20.535709 11.04966-38.44766 27.52182-48.157813 1.957585 2.552126 4.3951 5.208629 7.324826 7.940856l162.692383 151.71333c22.606881 21.081131 57.868989 20.010753 79.063707-2.716878l8.626471-9.250688 0 0L253.866407 116.708328c-14.052041-13.104459-16.795525-24.467251-9.41851-30.993898 1.689479 2.022053 3.671623 4.104481 5.954619 6.232958l332.526419 310.085314c22.561855 21.039175 57.878199 19.835767 78.908164-2.716878l267.24153-286.582017C929.288406 112.509702 929.496138 112.284575 929.700799 112.059448zM66.140884 635.043616c0 46.033429 37.180807 83.350336 83.489506 83.350336L874.367563 718.393953c46.110177 0 83.489506-37.389562 83.489506-83.350336l0-502.087233c0-46.032406-37.180807-83.350336-83.489506-83.350336L149.630391 49.606047c-46.110177 0-83.489506 37.389562-83.489506 83.350336L66.140884 635.043616zM276.685111 486.890368c34.199916 0 61.924351 28.79072 61.924351 64.306608 0 35.515888-27.724435 64.306608-61.924351 64.306608s-61.924351-28.79072-61.924351-64.306608C214.76076 515.681088 242.485195 486.890368 276.685111 486.890368z"  horiz-adv-x="1024" />

    
    <glyph glyph-name="untitled94" unicode="&#58885;" d="M995.104 821.952l-440.064-440.256 427.872-430.848c16.352-16.448 19.744-39.712 7.616-51.968s-35.232-8.8-51.584 7.648l-428.032 430.976-436.48-436.672c-16.544-16.544-39.936-19.968-52.224-7.68s-8.864 35.68 7.68 52.224l436.64 436.8-437.216 440.256c-16.352 16.448-19.744 39.712-7.616 51.968s35.264 8.832 51.584-7.648l437.376-440.384 439.904 440.096c16.544 16.544 39.936 19.968 52.224 7.68s8.864-35.68-7.68-52.224z"  horiz-adv-x="1024" />

    
    <glyph glyph-name="renzhengtongguo" unicode="&#59309;" d="M511.693015 768.703508c-212.22904 0-384.24303-172.01399-384.24303-384.24303s172.01399-385.266314 384.24303-385.266314S896.959328 172.231438 896.959328 384.460478 723.922055 768.703508 511.693015 768.703508zM737.122414 488.835415 465.235935 214.493055c-4.40012-4.40012-10.232837-6.651344-15.963226-6.651344-5.832717 0-11.563106 2.251224-15.963226 6.651344L295.063855 355.092235c-8.80024 8.80024-8.80024 23.126212 0 31.926451 8.80024 8.80024 23.126212 8.80024 31.926451 0l122.180074-122.180074 255.820925 255.820925c8.80024 8.80024 23.126212 8.80024 31.926451 0C745.922654 511.961627 745.922654 497.635655 737.122414 488.835415z"  horiz-adv-x="1024" />

    
    <glyph glyph-name="icon15" unicode="&#58894;" d="M239.568 407.216h-88.016c-6.32 0-11.44-5.12-11.44-11.44s5.12-11.44 11.44-11.44h88.016c6.32 0 11.44 5.12 11.44 11.44s-5.12 11.44-11.44 11.44zM283.568 319.2h-132.016c-6.32 0-11.44-5.12-11.44-11.44s5.12-11.44 11.44-11.44h132.016c6.32 0 11.44 5.12 11.44 11.44s-5.12 11.44-11.44 11.44zM459.6 319.2h-132.016c-6.32 0-11.44-5.12-11.44-11.44s5.12-11.44 11.44-11.44h132.016c6.32 0 11.44 5.12 11.44 11.44s-5.104 11.44-11.44 11.44zM767.696 275.184h-88.016c-6.32 0-11.44-5.12-11.44-11.44s5.12-11.44 11.44-11.44h88.016c6.32 0 11.44 5.12 11.44 11.44s-5.12 11.44-11.44 11.44zM327.584 384.32h88.016c6.32 0 11.44 5.12 11.44 11.44s-5.12 11.44-11.44 11.44h-88.016c-6.32 0-11.44-5.12-11.44-11.44s5.12-11.44 11.44-11.44zM767.696 407.216h-88.016c-6.32 0-11.44-5.12-11.44-11.44s5.12-11.44 11.44-11.44h88.016c6.32 0 11.44 5.12 11.44 11.44s-5.12 11.44-11.44 11.44zM591.648 407.216h-88.016c-6.32 0-11.44-5.12-11.44-11.44s5.12-11.44 11.44-11.44h88.016c6.32 0 11.44 5.12 11.44 11.44s-5.104 11.44-11.44 11.44zM933.808 628.592v-22.896c18.4 0 33.36-14.96 33.36-33.36v-492.848c0-18.384-14.96-33.36-33.36-33.36l-761.696 0c-18.4 0-33.36 14.96-33.36 33.36h-22.896c0-31.024 25.248-56.256 56.256-56.256h761.696c31.008 0 56.256 25.232 56.256 56.256v492.864c0 31.008-25.248 56.24-56.256 56.24zM888.672 204.768v479.984c0 33.072-26.928 60-60 60h-734.736c-33.072 0-60-26.928-60-60v-479.984c0-33.072 26.928-60 60-60h734.736c33.088 0 60 26.928 60 60zM57.936 204.768v479.984c0 19.84 16.16 36 36 36h734.736c19.84 0 36-16.16 36-36v-479.984c0-19.84-16.16-36-36-36h-734.736c-19.84 0-36 16.16-36 36zM247.936 515.408c7.504 0 13.6 6.096 13.6 13.6v80.864c0 7.504-6.096 13.6-13.6 13.6l-99.376-0c-7.504 0-13.6-6.096-13.6-13.6v-80.864c0-7.504 6.096-13.6 13.6-13.6l99.376 0zM158.96 599.44h78.56v-60.048h-78.56v60.048z"  horiz-adv-x="1024" />

    
    <glyph glyph-name="iconfontzhizuobiaozhun19" unicode="&#58899;" d="M748.406756 385.160429 748.656443 385.408069 306.594305 827.479417 300.948725 833.123974 263.007601 795.18592 673.026952 385.160429 268.638855-19.204132 262.994298-24.849712 300.932352-62.791859 748.657466 384.908696Z"  horiz-adv-x="1024" />

    
    <glyph glyph-name="chongzhi3x" unicode="&#58941;" d="M101.772746 28.189474c-78.27536-0.032841-83.102915 24.334819-83.102915 81.723614l0.558289 434.808377c-0.131362 39.523556 7.586158 74.104615 55.024278 75.237613 45.204965 1.067317 27.257625-10.164138 48.226292 73.874731 25.549918 102.363875 34.367596 106.403258 134.777461 79.884545l534.922677-152.69196 132.708508-0.870274c61.789423-0.410506 80.459254-12.430134 80.426414-83.743305l0.032841-426.581829c0-63.464289-23.825791-82.643148-83.185017-81.657933L101.772746 28.173054zM897.62971 77.598024c53.628556-0.311985 58.554633 5.730669 58.521792 54.121164l-0.01642 385.465508c0.032841 54.580931-19.622206 53.92412-59.129342 53.759918L126.025464 571.732786c-58.587473 0-58.587473 0-58.111286-63.037362L67.520092 139.666592c-0.164203-72.774574-5.024598-63.562811 67.35589-62.314871L897.62971 77.598024zM593.822135 631.929444c0 0-243.036208 67.766396-364.940188 100.147141-55.17206 14.663289-52.429877-25.155832-60.886309-63.562811-9.425227-36.682852 10.082037-47.684423 44.088387-47.48738l379.81694 0.311985L593.822135 631.929444zM517.927712 422.866746c97.963247 0.049261 195.926494 0.344825 293.87332-0.213463 17.881659-0.098522 42.249318 4.318527 42.479202-24.088515 0.213463-28.505564-24.170617-24.433341-42.085116-24.466181-201.361598-0.361246-402.739617-0.295565-604.101215-0.01642-18.850454 0.032841-41.182002-1.116577-37.914371 28.078638 2.54514 22.643533 21.953882 20.393958 37.536705 20.459639C311.114589 422.998108 414.529361 422.817485 517.927712 422.866746zM706.41583 205.01921c1.822648-16.617299-7.766781-25.549918-22.233027-26.190308-10.492544-0.476187-20.295436 6.223277-21.8061 18.834034-1.93759 16.420256 7.71752 25.533498 22.233027 26.157468C695.085854 224.280171 704.609602 217.580706 706.41583 205.01921zM832.211411 178.188512c-14.416985 3.251211-24.088515 10.591065-22.019563 26.994901 1.609185 12.610757 11.494179 19.211699 21.970302 18.669831 14.531926-0.738912 24.088515-9.917835 22.035983-26.338091C852.605369 184.855136 842.786056 180.947115 832.211411 178.188512z"  horiz-adv-x="1024" />

    
    <glyph glyph-name="qiehuanzhanghao" unicode="&#58904;" d="M892.419 556.036c4.16 10.04 1.86 21.595-5.824 29.281l-126.469 126.469-37.997-37.997 80.603-80.603-606.828 0 0-53.735 671.691 0c10.867 0 20.665 6.545 24.822 16.586zM894.464 270.771l-671.691 0c-10.867 0-20.664-6.546-24.822-16.586-4.16-10.04-1.86-21.595 5.824-29.281l126.469-126.469 37.997 37.996-80.603 80.603 606.828 0 0 53.735z"  horiz-adv-x="1024" />

    
    <glyph glyph-name="plus-select-down" unicode="&#59152;" d="M260.45 511.957l251.524-251.524 251.523 251.524h-503.046zM260.45 511.957z"  horiz-adv-x="1024" />

    
    <glyph glyph-name="icon-plus-search" unicode="&#59156;" d="M955.598-26.823l-251.515 251.516c58.26 65.085 93.984 150.754 93.984 244.978 0 203.166-164.697 367.863-367.863 367.863-203.165 0-367.863-164.696-367.863-367.863 0-203.164 164.698-367.863 367.863-367.863 94.224 0 179.893 35.728 244.978 93.985l251.516-251.518c3.975-3.975 9.213-5.962 14.451-5.962s10.478 1.986 14.451 5.962c7.946 7.948 7.946 20.954-0.002 28.902zM675.074 253.703c-9.033-10.229-18.675-19.871-28.904-28.902-57.673-50.929-133.16-82.119-215.968-82.119-180.302 0-326.989 146.687-326.989 326.989s146.688 326.989 326.99 326.989c180.301 0 326.989-146.687 326.989-326.989-0.001-82.808-31.191-158.295-82.118-215.968z"  horiz-adv-x="1024" />

    
    <glyph glyph-name="plus-add" unicode="&#59175;" d="M960 384c0-14.080-11.52-25.6-25.6-25.6h-396.8v-396.8c0-14.080-11.52-25.6-25.6-25.6s-25.6 11.52-25.6 25.6v396.8h-396.8c-14.080 0-25.6 11.52-25.6 25.6 0 14.080 11.52 25.6 25.6 25.6h396.8v396.8c0 14.080 11.52 25.6 25.6 25.6s25.6-11.52 25.6-25.6v-396.8h396.8c14.080 0 25.6-11.52 25.6-25.6z"  horiz-adv-x="1024" />

    
    <glyph glyph-name="yonghuguanli" unicode="&#58903;" d="M518.826667 313.002667c-143.36 0-260.096 113.322667-260.096 251.904C258.730667 703.488 375.466667 816.810667 518.826667 816.810667s260.096-113.322667 260.096-251.904c0-138.581333-116.736-251.904-260.096-251.904z m0 462.848c-120.832 0-219.136-94.890667-219.136-210.944S397.994667 353.962667 518.826667 353.962667s219.136 94.890667 219.136 210.944S639.658667 775.850667 518.826667 775.850667zM99.669333-48.810667h-3.413333c-10.922667 2.048-18.432 12.970667-16.384 23.893334 38.912 219.136 223.914667 378.88 439.637333 378.88 103.765333 0 201.386667-36.181333 282.624-104.448 8.874667-7.509333 9.557333-20.48 2.730667-28.672-7.509333-8.874667-20.48-9.557333-28.672-2.730667-74.410667 62.122667-163.157333 94.890667-257.365333 94.890667-195.242667 0-363.178667-145.408-398.677334-344.746667-2.048-10.24-10.922667-17.066667-20.48-17.066667zM924.330667 69.290667H591.872c-11.605333 0-20.48 8.874667-20.48 20.48s8.874667 20.48 20.48 20.48h332.458667c11.605333 0 20.48-8.874667 20.48-20.48s-8.874667-20.48-20.48-20.48zM924.330667-48.810667H591.872c-11.605333 0-20.48 8.874667-20.48 20.48s8.874667 20.48 20.48 20.48h332.458667c11.605333 0 20.48-8.874667 20.48-20.48s-8.874667-20.48-20.48-20.48z"  horiz-adv-x="1024" />

    
    <glyph glyph-name="zuo" unicode="&#58928;" d="M481.233-8c8.189 0 16.379 3.124 22.628 9.372 12.496 12.497 12.496 32.759 0 45.256L166.488 384l337.373 337.373c12.496 12.497 12.496 32.758 0 45.255-12.498 12.497-32.758 12.497-45.256 0l-360-360c-12.496-12.497-12.496-32.758 0-45.255l360-360c6.249-6.249 14.439-9.373 22.628-9.373z"  horiz-adv-x="1024" />

    
    <glyph glyph-name="gengduo" unicode="&#58931;" d="M557.179-8c-8.189 0-16.379 3.124-22.628 9.372-12.496 12.497-12.496 32.759 0 45.256L871.924 384 534.551 721.373c-12.496 12.497-12.496 32.758 0 45.255 12.498 12.497 32.758 12.497 45.256 0l360-360c12.496-12.497 12.496-32.758 0-45.255l-360-360c-6.249-6.249-14.439-9.373-22.628-9.373z"  horiz-adv-x="1024" />

    
    <glyph glyph-name="wenhao-fill" unicode="&#58982;" d="M512 832C264.96 832 64 631.04 64 384s200.96-448 448-448 448 200.96 448 448S759.04 832 512 832z m0-768.353c-26.496 0-48 21.505-48 48 0 26.497 21.504 48.001 48 48.001s48-21.504 48-48-21.504-48-48-48z m88.576 327.168c-27.84-27.808-56.575-56.544-56.575-82.368v-54.112c0-17.665-14.336-32.001-32.001-32.001s-32 14.336-32 32v54.113c0 52.353 39.999 92.352 75.327 127.648 25.887 25.887 52.672 52.64 52.672 73.984 0 53.343-43.072 96.735-95.999 96.735-53.823 0-96-41.536-96-94.56 0-17.664-14.335-31.999-32-31.999s-32 14.337-32 32c0 87.424 71.774 158.559 160 158.559s160-72.095 160-160.735c0-47.87-36.32-84.16-71.424-119.264z"  horiz-adv-x="1024" />

    
    <glyph glyph-name="yuanxingxuanzhong" unicode="&#58983;" d="M512-64C264.96-64 64 136.96 64 384S264.96 832 512 832s448-200.96 448-448-200.96-448-448-448z m0 831.713c-211.584 0-383.713-172.129-383.713-383.713 0-211.552 172.129-383.713 383.713-383.713 211.552 0 383.713 172.16 383.713 383.713 0 211.584-172.161 383.713-383.713 383.713zM726.977 502.816c-12.544 12.447-32.832 12.32-45.248-0.256l-233.28-235.84-103.264 106.112c-12.352 12.704-32.608 12.928-45.248 0.64-12.672-12.32-12.96-32.608-0.64-45.248l126.017-129.503c0.064-0.097 0.193-0.097 0.256-0.193 0.064-0.063 0.097-0.193 0.16-0.256 2.016-1.984 4.512-3.2 6.881-4.545 1.247-0.673 2.24-1.792 3.52-2.303 3.872-1.6 8-2.4 12.096-2.4 4.065 0 8.128 0.8 11.967 2.336 1.248 0.513 2.21 1.536 3.393 2.176 2.4 1.344 4.895 2.529 6.944 4.545 0.064 0.064 0.096 0.193 0.193 0.256 0.063 0.097 0.16 0.128 0.256 0.193l256.224 259.009c12.444 12.605 12.316 32.86-0.227 45.277z"  horiz-adv-x="1024" />

    
    <glyph glyph-name="xuanze" unicode="&#58987;" d="M939.696 627.247c-14.637 13.726-37.719 13.071-51.445-1.602l-485.551-516.969-265.238 261.344c-14.342 14.127-37.392 13.98-51.519-0.364-14.127-14.309-13.945-37.393 0.402-51.483l291.818-287.485c0.109-0.109 0.254-0.144 0.364-0.254s0.144-0.255 0.254-0.364c2.293-2.185 5.062-3.425 7.719-4.88 1.311-0.766 2.438-1.892 3.823-2.438 4.295-1.676 8.846-2.548 13.361-2.548 4.769 0 9.539 0.948 13.98 2.839 1.494 0.619 2.658 1.892 4.043 2.695 2.731 1.603 5.569 2.949 7.901 5.315 0.109 0.109 0.144 0.291 0.255 0.4 0.071 0.11 0.219 0.146 0.326 0.255l511.071 544.096c13.838 14.597 13.074 37.644-1.561 51.441z"  horiz-adv-x="1024" />

    
    <glyph glyph-name="chongzhi" unicode="&#59291;" d="M858.042523 716.813925H162.491625c-54.592542 0-98.900155-44.023997-99.347593-98.492649h894.266562c-0.468939 54.468652-44.776553 98.492649-99.368071 98.492649zM63.123554 568.627002v-418.322684c0-54.857728 44.490889-99.327115 99.368071-99.327115h695.550898c54.877182 0 99.368071 44.469387 99.368071 99.327115V568.627002H63.123554z m584.436815-314.422897c0-9.776057-7.925896-17.701953-17.663046-17.701953h-101.153726v-64.550851c0-9.736126-7.907466-17.642568-17.601613-17.642568h-1.707841c-9.714624 0-17.62209 7.907466-17.62209 17.642568V236.502152H390.656278c-9.736126 0-17.662022 7.94535-17.662021 17.701953v1.930024c0 9.755579 7.925896 17.683523 17.662021 17.683523v-0.021501h101.154751v34.369782h-77.395492c-9.736126 0-17.662022 7.946374-17.662021 17.70093v1.566544c0 9.775033 7.92692 17.701953 17.662021 17.701954h76.380822l-84.714224 82.51799c-3.434111 3.373702-5.325228 7.865487-5.325228 12.621434 0 4.778473 1.91057 9.26821 5.344682 12.621435 3.374726 3.333771 7.886989 5.161406 12.683891 5.161406 4.795879 0 9.328619-1.847089 12.722799-5.181884l78.959989-77.903339 78.697873 77.679108a18.081815 18.081815 0 0 0 12.681844 5.144c4.776425 0 9.269234-1.810229 12.641912-5.144a17.454173 17.454173 0 0 0 5.325228-12.5385c0-4.777449-1.889068-9.228278-5.325228-12.60198l-83.492729-82.398196h75.138849c9.756603 0 17.705025-7.946374 17.705025-17.702977v-1.544019c0-9.776057-7.948422-17.700929-17.705025-17.700929h-77.372966v-34.369783h101.155774c9.737149 0 17.659974-7.925896 17.659974-17.683523v-1.909547h-0.01843v0.002048z"  horiz-adv-x="1024" />

    
    <glyph glyph-name="fapiao" unicode="&#59019;" d="M915.94 151.248h-76.508V225.72h38.23v74.497H150.98v-74.522h38.279v-74.473h-76.508c-21.175 0.025-38.28 16.682-38.28 37.286V560.848c0 35.97 152.993 74.473 420.722 74.473h38.254c265.371 0 420.697-37.634 420.697-74.473v-372.339c0.024-20.604-17.104-37.261-38.205-37.261z m-95.598 372.364c-31.7 0-57.394-24.974-57.394-55.855 0-30.832 25.669-55.805 57.394-55.805 31.65 0 57.344 24.973 57.344 55.805-0.025 30.881-25.693 55.855-57.344 55.855zM227.465 858.739C227.465 879.343 244.593 896 265.744 896h497.204c21.1 0 38.23-16.657 38.23-37.261v-186.157H227.465V858.739z m573.713-930.934c0-20.555-17.13-37.187-38.23-37.187H265.744c-21.15 0-38.28 16.632-38.28 37.187V262.932h573.714v-335.127zM724.669 225.72H303.973v-37.212h420.721v37.212h-0.025z m0-74.473H303.973v-37.236h420.721v37.236h-0.025z m0-74.448H303.973v-37.286h420.721V76.8h-0.025z m0-74.473H303.973v-37.286h420.721v37.286h-0.025z"  horiz-adv-x="1024" />

    
    <glyph glyph-name="zhanghaoguanli" unicode="&#58887;" d="M970.667 202.666v-64l-57.6-12.8-19.2-38.4 32-51.2-44.8-44.8-51.2 32-38.4-19.2-12.8-57.6h-64l-12.8 57.6-38.4 19.2-51.2-32-44.8 44.8 32 51.2-19.2 38.4-57.6 12.8v64l57.6 12.8 19.2 38.4-32 51.2 44.8 44.8 51.2-32 38.4 19.2 12.8 57.6h64l12.8-57.6 38.4-19.2 51.2 32 44.8-44.8-32-51.2 19.2-38.4 57.6-12.8zM746.667 285.866c-64 0-108.8-51.2-108.8-108.8 0-64 51.2-115.2 108.8-115.2 64 0 115.2 51.2 115.2 115.2-6.4 57.6-51.2 102.4-115.2 108.8zM458.667 330.666c-179.2 0-320-140.8-320-320h-64c0 166.4 102.4 307.2 249.6 358.4-70.4 44.8-121.6 128-121.6 217.6 0 140.8 115.2 256 256 256s256-115.2 256-256-115.2-256-256-256zM458.667 778.666c-108.8 0-192-83.2-192-192s83.2-192 192-192 192 83.2 192 192-83.2 192-192 192z"  horiz-adv-x="1024" />

    
    <glyph glyph-name="guanggaoguanli" unicode="&#58911;" d="M166.4 236.8h691.2c44.8 0 80 35.2 80 80V710.4c0 44.8-35.2 80-80 80H166.4c-44.8 0-80-35.2-80-80V320c0-48 35.2-83.2 80-83.2zM150.4 710.4c0 9.6 6.4 16 16 16h691.2c9.6 0 16-6.4 16-16V320c0-9.6-6.4-16-16-16H166.4c-9.6 0-16 6.4-16 16V710.4zM969.6 169.6H54.4c-16 0-32-12.8-32-32s12.8-32 32-32H480v-99.2c0-16 12.8-32 32-32s32 12.8 32 32v99.2h425.6c16 0 32 12.8 32 32s-16 32-32 32zM300.8 387.2c9.6 0 16 3.2 22.4 9.6 3.2 3.2 6.4 12.8 12.8 25.6l9.6 22.4h80l9.6-22.4c0-3.2 3.2-6.4 6.4-12.8s3.2-9.6 6.4-12.8c3.2-3.2 6.4-6.4 9.6-6.4 3.2-3.2 9.6-3.2 12.8-3.2 9.6 0 16 3.2 22.4 9.6 6.4 6.4 9.6 12.8 9.6 19.2 0 6.4-3.2 16-6.4 28.8l-57.6 147.2c-3.2 6.4-6.4 12.8-6.4 19.2-3.2 6.4-3.2 9.6-6.4 12.8-3.2 6.4-6.4 9.6-12.8 12.8-9.6 6.4-28.8 6.4-38.4 0-6.4-3.2-9.6-6.4-12.8-12.8-3.2-3.2-6.4-9.6-9.6-16l-64-163.2c-3.2-6.4-3.2-9.6-6.4-12.8 0-3.2-3.2-9.6-3.2-12.8 0-6.4 3.2-12.8 9.6-19.2-3.2-9.6 3.2-12.8 12.8-12.8z m60.8 108.8l22.4 60.8 22.4-60.8h-44.8zM547.2 396.8c6.4-3.2 12.8-6.4 22.4-6.4h60.8c9.6 0 19.2 0 28.8 3.2 9.6 0 16 3.2 25.6 6.4 6.4 3.2 16 9.6 22.4 16 9.6 6.4 16 16 19.2 25.6 6.4 9.6 9.6 19.2 12.8 32 3.2 12.8 3.2 25.6 3.2 38.4 0 44.8-12.8 76.8-38.4 99.2-9.6 9.6-22.4 16-32 19.2-12.8 3.2-25.6 3.2-41.6 3.2h-60.8c-12.8 0-22.4-3.2-25.6-9.6-6.4-6.4-9.6-16-9.6-25.6v-166.4c0-9.6 0-16 3.2-19.2 0-6.4 3.2-12.8 9.6-16z m48 48V582.4h22.4c12.8 0 25.6 0 32-3.2 9.6-3.2 16-9.6 19.2-19.2 6.4-9.6 9.6-25.6 9.6-44.8 0-28.8-6.4-51.2-19.2-60.8-3.2-3.2-6.4-3.2-9.6-6.4-3.2 0-6.4-3.2-12.8-3.2h-41.6z"  horiz-adv-x="1024" />

    
    <glyph glyph-name="yunyingguanli" unicode="&#59069;" d="M741.429142 84.566866m-164.53493 0a164.53493 164.53493 0 1 1 329.06986 0 164.53493 164.53493 0 1 1-329.06986 0ZM741.429142-101.94012c-102.706587 0-185.996008 83.800399-185.996008 186.506986s83.800399 186.506986 185.996008 186.506986c102.706587 0 186.506986-83.800399 186.506986-186.506986s-83.800399-186.506986-186.506986-186.506986z m0 329.069861c-78.690619 0-142.562874-63.872255-142.562875-142.562875s63.872255-142.562874 142.562875-142.562874 142.562874 63.872255 142.562874 142.562874-64.383234 142.562874-142.562874 142.562875zM520.175649 845.413174c54.163673 0 99.129741-17.884232 130.299401-51.608783 36.790419-39.856287 53.141717-99.640719 47.520958-172.199601-3.576846-42.411178-21.461078-96.57485-44.966068-138.475049-5.10978-9.197605-13.285429-19.928144-21.972056-31.169661-25.548902-33.724551-60.806387-79.712575-45.477046-139.497006 1.021956-4.087824 2.55489-7.664671 4.087825-11.752495-74.091816-47.520958-119.057884-128.255489-119.057885-217.165669 0-44.966068 11.752495-88.399202 33.724551-126.722555-73.580838 1.532934-176.287425 5.10978-222.786427 13.796407-26.570858 5.10978-107.816367 19.928144-132.854291 60.29541-9.708583 15.840319-11.241517 36.279441-4.087825 62.339321 11.241517 41.389222 82.778443 81.245509 120.590819 102.195609l10.730539 6.131736c19.417166 10.730539 48.031936 26.570858 74.602794 36.790419l9.197605 3.576847c30.147705 11.241517 86.355289 32.191617 91.976048 92.998004 4.598802 44.45509-17.373253 72.047904-35.257485 94.530938-3.065868 4.087824-6.642715 8.175649-9.708583 12.263473-53.652695 74.602794-76.646707 147.672655-71.025948 230.451098C342.355289 768.766467 399.58483 832.638723 489.516966 842.858283c10.730539 2.043912 20.9501 2.55489 30.658683 2.554891m0 43.944111c-11.241517 0-22.994012-0.510978-35.257485-2.043912C368.926148 874.027944 299.944112 787.161677 292.279441 676.279441c-7.664671-113.948104 34.746507-197.237525 79.201597-259.065868 19.928144-26.570858 40.367265-44.45509 36.790419-76.646707-3.576846-38.323353-44.45509-49.053892-73.580838-60.295409-35.257485-13.796407-72.047904-35.257485-89.932136-44.966068-60.806387-33.724551-127.233533-74.091816-142.051896-129.788423-33.213573-122.634731 78.690619-159.936128 171.688623-176.798403 79.201597-14.818363 291.768463-15.329341 291.768463-15.329341 5.620758 2.55489 10.219561 8.175649 10.219561 15.329341 0 4.598802-1.532934 9.197605-4.598803 12.263473-35.257485 38.323353-56.718563 88.399202-56.718563 143.58483 0 85.333333 50.586826 158.403194 122.634731 193.660679l2.55489 1.532934c4.598802 2.043912 7.664671 7.664671 7.664671 13.285429 0 4.598802-1.532934 8.175649-4.598803 10.730539-7.664671 6.642715-13.796407 13.796407-15.840319 21.461078-13.796407 53.652695 39.856287 95.041916 63.361277 137.453094 25.548902 44.45509 45.988024 105.261477 50.586827 155.848303 13.285429 167.600798-80.734531 270.818363-221.253493 270.818363zM738.363273 102.451098l-68.471057-43.433134c-3.065868-2.043912-7.153693-1.021956-9.197605 2.043912l-1.532934 2.55489c-2.043912 3.065868-1.021956 7.153693 2.043912 9.197605l68.471058 43.433134c3.065868 2.043912 7.153693 1.021956 9.197604-2.043912l1.532935-2.55489c1.532934-3.065868 1.021956-7.153693-2.043913-9.197605zM816.031936 67.704591l-71.536926 37.812375c-3.065868 1.532934-4.598802 5.620758-2.55489 8.686627l1.532934 2.55489c1.532934 3.065868 5.620758 4.598802 8.686627 2.55489l71.536926-37.812375c3.065868-1.532934 4.598802-5.620758 2.55489-8.686627l-1.532934-2.55489c-1.532934-3.065868-5.620758-4.087824-8.686627-2.55489zM658.139721 61.572854m-25.548903 0a25.548902 25.548902 0 1 1 51.097805 0 25.548902 25.548902 0 1 1-51.097805 0ZM745.516966 116.758483m-25.548902 0a25.548902 25.548902 0 1 1 51.097804 0 25.548902 25.548902 0 1 1-51.097804 0ZM830.339321 69.237525m-25.548902 0a25.548902 25.548902 0 1 1 51.097805 0 25.548902 25.548902 0 1 1-51.097805 0ZM850.267465-36.023952l56.207585-56.207585c8.175649-8.175649 8.175649-21.461078 0-29.636726-8.175649-8.175649-21.461078-8.175649-29.636727 0l-56.207584 56.207584c-8.175649 8.175649-8.175649 21.461078 0 29.636727 8.175649 8.175649 21.461078 8.175649 29.636726 0z"  horiz-adv-x="1024" />

    
    <glyph glyph-name="icon-p_jihuagongyingzhuangkuang" unicode="&#58888;" d="M348.16 340.992h-47.104c-13.312 0-22.528-8.192-22.528-20.48v-91.136h20.48v91.136H348.16c1.024 0 2.048 0 2.048-1.024v-90.112h20.48v91.136c0 10.24-10.24 20.48-22.528 20.48zM473.088 401.408h-47.104c-13.312 0-22.528-9.216-22.528-20.48v-151.552h20.48V380.928h49.152c1.024 0 2.048 0 2.048-1.024v-150.528h20.48V380.928c0 10.24-10.24 20.48-22.528 20.48zM599.04 472.064h-47.104c-13.312 0-22.528-8.192-22.528-20.48v-222.208h20.48V451.584h49.152c1.024 0 2.048-1.024 2.048-1.024v-221.184h20.48V451.584c0 10.24-10.24 20.48-22.528 20.48zM723.968 530.432h-47.104c-13.312 0-22.528-9.216-22.528-20.48v-280.576h20.48V509.952h49.152c1.024 0 2.048-1.024 2.048-1.024v-279.552h20.48V509.952c0 10.24-10.24 20.48-22.528 20.48zM750.592 680.96c-1.024 4.096-5.12 7.168-9.216 7.168h-92.16c-6.144 0-10.24-4.096-10.24-10.24s4.096-10.24 10.24-10.24h62.464L526.336 522.24l-54.272 47.104c-4.096 3.072-9.216 3.072-13.312 0L275.456 408.576c-4.096-4.096-5.12-10.24-1.024-14.336 2.048-2.048 5.12-3.072 8.192-3.072 2.048 0 5.12 1.024 7.168 2.048L465.92 547.84l53.248-46.08c4.096-3.072 9.216-3.072 13.312 0l197.632 155.648 1.024-59.392c0-5.12 5.12-10.24 10.24-10.24 6.144 0 10.24 5.12 10.24 10.24l-1.024 76.8c1.024 1.024 1.024 4.096 0 6.144zM910.336 755.712H113.664c-33.792 0-61.44-27.648-61.44-61.44v-481.28c0-33.792 27.648-61.44 61.44-61.44h796.672c33.792 0 61.44 26.624 61.44 60.416V694.272c0 33.792-27.648 61.44-61.44 61.44z m20.48-543.744c0-10.24-9.216-19.456-20.48-19.456H113.664c-11.264 0-20.48 9.216-20.48 20.48v481.28c0 11.264 9.216 20.48 20.48 20.48h796.672c11.264 0 20.48-9.216 20.48-20.48v-482.304zM829.44 62.464c-8.192 10.24-21.504 11.264-23.552 11.264H648.192c1.024 2.048 1.024 5.12 1.024 7.168 0 15.36-11.264 26.624-26.624 26.624H401.408c-15.36 0-26.624-11.264-26.624-26.624 0-2.048 0-5.12 1.024-7.168H225.28c-13.312 0-23.552-10.24-23.552-11.264l-21.504-23.552c-3.072-3.072-3.072-7.168-2.048-11.264 2.048-4.096 5.12-6.144 9.216-6.144h655.36c4.096 0 8.192 2.048 9.216 6.144 2.048 4.096 1.024 8.192-2.048 11.264-4.096 4.096-15.36 16.384-20.48 23.552z m-618.496-20.48l6.144 6.144c1.024 1.024 5.12 5.12 8.192 5.12h174.08c2.048 0 3.072 0 4.096 1.024l2.048 1.024c4.096 2.048 6.144 7.168 5.12 11.264-1.024 5.12-5.12 8.192-10.24 8.192-3.072 0-6.144 3.072-6.144 6.144s3.072 6.144 6.144 6.144h221.184c3.072 0 6.144-3.072 6.144-6.144s-3.072-6.144-6.144-6.144c-5.12 0-9.216-3.072-10.24-8.192-1.024-5.12 1.024-9.216 5.12-11.264l2.048-1.024c1.024-1.024 3.072-1.024 4.096-1.024h179.2c2.048 0 7.168-2.048 9.216-4.096 2.048-2.048 4.096-4.096 6.144-7.168H210.944z"  horiz-adv-x="1024" />

    
    <glyph glyph-name="zhanghuguanli" unicode="&#59048;" d="M490.116597 342.786343c-146.131195 0-264.615727 118.484531-264.615727 264.650519v22.068621c0 146.165987 118.484531 264.649496 264.615727 264.649496 146.165987 0 264.650519-118.483508 264.650519-264.649496v-22.068621c0-146.165987-118.484531-264.650519-264.650519-264.650519z m198.514239 286.71914c0 109.60735-88.871073 198.478424-198.514239 198.478424-109.60735 0-198.478424-88.871073-198.478424-198.478424v-22.068621c0-109.60735 88.871073-198.478424 198.478424-198.478424 109.642143 0 198.514239 88.871073 198.514239 198.478424v22.068621zM489.204831 454.322625c-24.664749-2.947122-28.279067 18.069541 1.543146 22.454408 55.014988 8.104585 100.589976 45.225017 120.66008 95.29232 7.333012 16.770965 25.296129 12.279674 21.155833-6.490831-23.156396-59.57484-77.713966-103.430674-143.359059-111.255897z m133.254933 164.165944c0 6.070252 4.947685 11.016915 11.016915 11.016914 6.105045 0 11.016915-4.946662 11.016914-11.016914 0-6.105045-4.91187-11.051707-11.016914-11.051707-6.069229 0-11.016915 4.946662-11.016915 11.051707zM446.01517 298.683892c48.417733 0 94.941326-7.860015 138.516773-20.490683-15.612583-17.226337-29.365818-36.418444-40.313147-57.400315-29.436426 6.771217-61.85579 11.2973-98.800214 11.753695-147.429771 14.31503-321.102229-123.150808-330.190211-132.343167-26.706245-18.933211-44.102451-55.663764-44.10245-86.398766 0-30.733978 20.12434-65.905012 44.10245-67.977207h435.868066c14.630209-24.910343 32.80515-47.295166 54.03159-66.171072H115.228371c-56.382125-0.657986-108.22691 68.481697-108.22691 136.195915 0 51.29527 26.26213 99.188047 64.12446 128.454604-0.360204-0.278339 0.421602 0 0 0 76.276221 65.891709 211.70568 154.376996 374.889249 154.376996zM1012.92578 56.593182c-2.174526-9.261944-10.069333-16.068977-19.612686-16.875343-19.576871-1.684362-37.541011-13.402241-47.997154-31.402197-9.894348-17.016559-11.508102-37.435611-4.385891-54.627155 3.64911-8.736988 1.227967-18.806321-5.963828-24.980951-25.787316-22.068621-55.505152-38.242999-88.274486-48.102554a22.217001 22.217001 0 0 0-6.385431-0.946558c-6.210445 0-13.718443 3.333932-17.96414 9.193382-11.262508 15.647375-30.314423 25.01472-50.979068 25.01472-19.437701 0-37.892005-8.595772-49.330522-22.945594a22.109554 22.109554 0 0 0-24.559349-7.122212c-32.559557 11.262508-61.610196 28.699646-86.416162 51.82125-6.841825 6.349615-8.876158 16.314571-5.086855 24.804942 7.753591 17.437138 6.28003 38.312584-3.929496 55.890938-9.718339 16.736173-26.454512 28.313859-44.734853 30.945803-9.262968 1.36816-16.665565 8.384971-18.454304 17.507745-3.052522 15.508205-4.596691 31.120788-4.596692 46.487778 0 17.543561 2.070148 35.612079 6.210446 53.681619 2.104941 9.121751 9.82374 15.927761 19.2269 16.911159 19.156292 1.964748 36.734646 13.68365 46.979987 31.331589 9.82374 16.945951 11.508102 37.260625 4.490268 54.381561-3.542686 8.66638-1.192152 18.560728 5.859451 24.735358 26.208918 22.840194 56.417941 39.505759 89.819678 49.576115 9.086959 2.700505 18.910699-0.63138 24.384364-8.316409 11.2973-15.787568 30.4188-25.225521 51.155077-25.225522 19.577894 0 38.068014 8.66638 49.505507 23.191189 5.788843 7.367805 15.717983 10.245342 24.595164 7.192819 31.577183-10.911514 60.20622-28.104081 85.188195-51.084469 7.016811-6.456039 9.052167-16.736173 4.947685-25.36776-8.350179-17.717524-7.122211-39.013549 3.367701-57.048298 9.998725-17.262152 27.226085-28.910447 45.99659-31.190372 9.543354-1.157359 17.22736-8.280594 19.016099-17.647939 2.947122-15.297404 4.420683-30.489408 4.420683-45.12064-0.001023-17.823947-2.176572-36.207643-6.492878-54.663994z m-60.907185 74.592882c-22.841218 6.91141-42.839691 22.805402-55.224765 44.488237-13.087063 22.805402-16.454764 49.365314-9.788947 73.573669-12.490475 10.139941-26.068725 18.384719-40.558741 24.664749-17.262152-15.823384-40.488133-24.979928-64.697512-24.979927-25.857924 0-50.242288 10.17371-67.715241 27.822672-15.719007-6.070252-30.349215-14.244422-43.716664-24.52558 5.121648-23.085788 1.402953-48.137347-10.771321-69.363787-12.770861-22.315238-33.43653-38.4538-56.978712-45.01524-1.438769-9.191336-2.174526-18.314111-2.174526-27.191292 0-7.262404 0.455371-14.595416 1.402953-21.928429 22.314215-7.087419 41.36613-22.594601 53.611012-43.99705 12.736069-22.208814 16.278755-48.172139 10.244318-71.960938 12.665461-10.385535 26.665313-18.875906 41.857317-25.437346 17.226337 15.893992 36.944424 24.771173 64.451917 24.771173 25.78834 0 50.067302-10.105149 67.50444-27.611871 15.262612 5.823636 29.436426 13.68365 42.453905 23.437805-5.193279 23.156396-1.473561 48.27754 10.736528 69.644174 13.051247 22.771633 34.208103 39.015595 58.312081 45.330418 1.544169 9.403161 2.314719 18.700921 2.314718 27.753087a170.455183 170.455183 0 0 1-1.26276 20.525476zM776.835737 11.999544c-48.733934 0-88.204901 44.418652-88.204901 99.221816 0 54.838979 39.470967 99.256608 88.204901 99.256608 48.699142 0 88.204901-44.417629 88.204901-99.256608 0-54.803163-39.505759-99.221816-88.204901-99.221816z m0 154.376997c-24.349571 0-44.102451-24.700565-44.10245-55.154158 0-30.419823 19.75288-55.119365 44.10245-55.119365 24.349571 0 44.102451 24.699542 44.102451 55.119365 0 30.453592-19.75288 55.154157-44.102451 55.154158z"  horiz-adv-x="1024" />

    
    <glyph glyph-name="shangchuan" unicode="&#58882;" d="M585.806769 326.498462l-67.505231-52.696616c-8.507077-8.822154-33.713231-8.822154-42.220307 8.900923-16.856615 17.565538-8.428308 35.052308 8.507077 43.953231l126.582154 96.571077c8.428308 8.900923 25.284923 8.900923 42.141538 0l126.582154-96.571077c0-8.900923 8.428308-26.387692-8.507077-43.953231-8.507077-8.900923-16.856615-17.565538-25.363692-17.565538-8.428308 0-16.856615 0-16.856616 8.822154l-75.854769 54.665846v-410.230154c0-19.928615-8.507077-39.857231-33.713231-39.857231-16.856615 0-33.713231 19.928615-33.713231 39.857231V326.498462h-0.078769z m-276.637538-357.612308H282.781538C123.982769-31.113846 0.630154 111.458462 0.630154 280.812308c0 178.018462 132.174769 320.590769 290.816 311.611077C344.221538 770.363077 494.119385 895.212308 661.661538 895.212308c185.028923 0 343.591385-142.414769 387.702154-347.21477 123.352615-26.781538 211.574154-142.414769 211.574154-284.829538 0-160.295385-114.530462-293.809231-255.684923-293.809231-44.110769 0-132.253538 0-229.218461 80.029539-17.565538 17.801846-17.565538 44.583385 0 53.405538 17.644308 17.801846 35.288615 17.801846 52.932923 0 70.498462-71.286154 132.253538-62.385231 167.463384-62.385231h8.822154c105.787077 0 185.107692 97.910154 185.107692 222.601847 0 115.712-79.320615 213.700923-176.206769 222.523076-17.644308 0-26.466462 17.801846-35.209846 26.781539-26.466462 178.018462-158.641231 311.611077-317.361231 311.611077-140.996923 0-273.250462-115.633231-308.460307-276.007385 0-17.801846-17.565538-26.781538-44.11077-26.781538h-35.209846C159.350154 521.058462 71.128615 414.168615 71.128615 280.576s88.221538-240.482462 202.673231-240.482462H291.446154c35.209846 0 79.320615 0 140.996923 62.306462 17.565538 17.801846 35.209846 17.801846 52.775385 0 17.644308-17.723077 17.644308-35.524923 0-53.326769-70.419692-71.128615-132.096-80.108308-176.049231-80.108308z"  horiz-adv-x="1260" />

    
    <glyph glyph-name="mima" unicode="&#58929;" d="M657.6 439.2c-8.9 0-16.1 7.2-16.1 16.1 0 1.7 0.3 3.3 0.7 4.8V564c0 71-57.7 128.7-128.7 128.7S384.7 634.9 384.7 564v-107.9c0-8.9-7.2-16.1-16.1-16.1s-16.1 7.2-16.1 16.1V564c0 88.8 72.2 161 161 161s161-72.2 161-161v-107.9c-0.1-9.3-7.6-16.9-16.9-16.9zM513.5 185c-8.9 0-16.1 7.2-16.1 16.1V313.70000000000005c0 8.9 7.2 16.1 16.1 16.1 8.9 0 16.1-7.2 16.1-16.1v-112.6c0-8.9-7.2-16.1-16.1-16.1zM679.5 43.299999999999955H347.4c-68.1 0-123.6 55.4-123.6 123.6v181c0 68.1 55.4 123.6 123.6 123.6h332.1c68.1 0 123.6-55.4 123.6-123.6v-181c0-68.1-55.4-123.6-123.6-123.6zM347.4 439.2c-50.4 0-91.3-41-91.3-91.3v-181c0-50.4 41-91.3 91.3-91.3h332.1c50.4 0 91.3 41 91.3 91.3v181c0 50.4-41 91.3-91.3 91.3H347.4z"  horiz-adv-x="1024" />

    
    <glyph glyph-name="yonghu" unicode="&#58930;" d="M503.9 464.6c-91.1 0-165.2 74.1-165.2 165.2S412.8 795 503.9 795s165.2-74.1 165.2-165.2S595 464.6 503.9 464.6z m0 298.2c-73.3 0-133-59.7-133-133s59.7-133 133-133 133 59.7 133 133-59.6 133-133 133zM707.2 21.3H316.7c-32.1 0-58.3 26.1-58.3 58.3v84.2c0 36.6 7.3 71.9 21.6 104.7 13.9 31.8 33.7 59.8 59 83.4 51.4 48 119 71.8 190.4 66.9 64-4.4 123.5-32.6 167.5-79.5 44.2-47.1 68.6-108.7 68.6-173.4 0-0.6 0-1.2-0.1-1.8v-84.5c0-32.2-26.1-58.3-58.2-58.3zM511.3 387.2c-56.4 0-109.3-20.6-150.2-58.9-22-20.6-39.3-45.1-51.5-72.8-12.6-28.7-18.9-59.6-18.9-91.8v-84.2c0-14.3 11.7-26 26-26h390.4c14.3 0 26 11.7 26 26v86.3c0 0.6 0 1.2 0.1 1.7-0.4 55.8-21.6 108.9-59.8 149.6-38.4 41-90.3 65.6-146.2 69.4-5.3 0.5-10.6 0.7-15.9 0.7z m238.1-221.4zM673.5 176h-87c-8.9 0-16.1 7.2-16.1 16.1s7.2 16.1 16.1 16.1h87c8.9 0 16.1-7.2 16.1-16.1s-7.2-16.1-16.1-16.1zM673.5 102.9H503.9c-8.9 0-16.1 7.2-16.1 16.1s7.2 16.1 16.1 16.1h169.6c8.9 0 16.1-7.2 16.1-16.1s-7.2-16.1-16.1-16.1z"  horiz-adv-x="1024" />

    
    <glyph glyph-name="caiwuguanli" unicode="&#58886;" d="M773.12 728.064V568.32h152.576v159.744H773.12z m125.952-133.12h-99.328V701.44h99.328v-106.496zM773.12 294.912h152.576V454.656H773.12v-159.744z m26.624 133.12h99.328v-106.496h-99.328V428.032zM773.12 28.16h152.576V187.904H773.12v-159.744z m26.624 133.12h99.328v-106.496h-99.328V161.28zM274.944 576c-111.616 0-201.728-90.112-201.728-201.728 0-111.104 90.112-201.728 201.728-201.728 111.616 0 201.728 90.112 201.728 201.728 0 111.616-90.112 201.728-201.728 201.728z m0-367.616c-91.648 0-166.4 74.752-166.4 166.4s74.752 166.4 166.4 166.4 166.4-74.752 166.4-166.4-74.752-166.4-166.4-166.4zM546.816 399.872h-57.856c1.024-8.192 1.536-16.896 1.536-25.088 0-6.656-0.512-13.312-1.024-19.968h57.344v-269.824h215.552v43.52h-172.032V354.304h172.032V399.872h-172.032v221.184h172.032v43.52h-215.552V399.872zM274.944 505.344c-72.192 0-131.072-58.88-131.072-131.072 0-72.192 58.88-131.072 131.072-131.072 72.192 0 131.072 58.88 131.072 131.072 0 72.704-58.88 131.072-131.072 131.072z m13.312-213.504v-28.16h-26.624v25.6c-17.92 0.512-35.84 6.144-46.08 11.776l8.192 31.744c11.264-6.144 27.136-11.776 45.056-11.776 15.872 0 26.112 6.144 26.112 16.896 0 10.24-8.704 16.896-29.184 23.552-29.184 9.728-48.64 23.552-48.64 49.664 0 24.064 16.896 43.008 45.568 48.128v25.6h26.624V460.8c17.92-0.512 30.208-4.608 39.424-9.216l-8.192-30.72c-6.656 3.072-19.456 9.728-38.912 9.728-17.408 0-23.552-7.68-23.552-15.36 0-8.704 9.728-14.848 32.768-23.04 32.256-11.264 45.056-26.112 45.056-51.2 0.512-23.552-16.384-44.032-47.616-49.152z"  horiz-adv-x="1024" />

    
    <glyph glyph-name="download" unicode="&#58938;" d="M1007.981303 192.0127c-8.83907 0-15.99612-7.15705-15.996119-15.99612v-96.010583c0-2.020681-2.528674-5.587918-4.436468-6.265241L521.708301-91.54871600000001c-4.808996-1.715886-14.630184-1.715886-19.450468 0L36.439996 73.74075600000003c-1.907794 0.677323-4.436468 4.24456-4.436468 6.265241v96.010583a15.99612 15.99612 0 0 1-32.003528 0v-96.010583c0-15.555859 11.062948-31.224606 25.726998-36.428707l465.829126-165.30076c5.91529-2.099702 13.173939-3.149554 20.432587-3.149554s14.517297 1.06114 20.421299 3.149554l465.840414 165.30076c14.675339 5.204101 25.726998 20.861559 25.726999 36.428707v96.010583c0 8.83907-7.15705 15.99612-15.99612 15.99612zM500.496792 532.954691l0.474126-0.474127 11.051659-11.051659 11.05166 11.051659 0.474126 0.474127 191.772814 191.784103a15.984831 15.984831 0 1 1-22.622599 22.622599L528.018697 582.670224V880.00388a15.984831 15.984831 0 1 1-31.992239 0v-297.322367L331.357866 747.361393a15.99612 15.99612 0 1 1-22.6226-22.622599L500.496792 532.954691zM91.099989 320.78315499999997l416.034572-144.021519a16.086429 16.086429 0 0 1 9.798611 0L932.900011 320.78315499999997a15.99612 15.99612 0 0 1 0 30.47955L516.888017 495.23907a15.917098 15.917098 0 0 1-9.787322 0L91.099989 351.25141699999995a16.007408 16.007408 0 0 1 0-30.468262z m420.888722 142.418521l363.722633-127.178746-363.688767-127.2239-363.74521 127.2239 363.711344 127.178746zM91.099989 160.77680499999997l416.034572-144.021519c1.59171-0.507993 3.239863-0.745056 4.899305-0.745056s3.307596 0.237063 4.899306 0.745056L932.900011 160.77680499999997a16.007408 16.007408 0 0 1 0 30.47955L854.601433 216.41891699999996l-52.289362-16.797618 73.399273-23.59343-363.677478-127.2239-363.74521 127.2239 73.399273 23.59343-52.289362 16.820196L91.099989 191.24506699999995a15.984831 15.984831 0 0 1 0-30.468262z"  horiz-adv-x="1024" />

    
    <glyph glyph-name="jifen" unicode="&#58908;" d="M511.996 49.012c-185.694 0-336.245 65.85-336.773 146.992-17.513 4.67-34.558 9.692-50.786 14.945-0.701-4.788-0.991-9.572-0.991-14.478 0-111.032 173.957-201.045 388.55-201.045 214.59 0 388.548 90.013 388.548 201.045 0 6.246-0.526 12.495-1.636 18.565a913.722 913.722 0 0 0-50.261-15.587l0.117-2.977c0.002-81.435-150.782-147.46-336.768-147.46z m0 187.62c-185.694 0-336.245 65.734-336.773 146.993-17.513 4.67-34.558 9.572-50.786 14.944-0.701-4.786-0.991-9.69-0.991-14.593 0-110.915 173.957-200.93 388.55-200.93 214.59 0 388.548 90.016 388.548 200.93 0 6.303-0.526 12.49-1.636 18.68-16.054-5.546-32.865-10.74-50.261-15.644l0.117-3.036c0.002-81.378-150.782-147.343-336.768-147.343zM175.223 571.595c0 81.378 150.786 147.341 336.773 147.341 185.986 0 336.77-65.963 336.77-147.341 0-81.375-150.784-147.34-336.77-147.34-185.987 0-336.773 65.965-336.773 147.34z m-51.776 0c0-111.03 173.957-200.93 388.55-200.93 214.59 0 388.548 89.9 388.548 200.93s-173.958 200.93-388.549 200.93c-214.592 0.002-388.549-89.9-388.549-200.93z"  horiz-adv-x="1024" />

    
    <glyph glyph-name="xiaoshouguanli" unicode="&#58891;" d="M653.733108 426.854685a255.988321 255.988321 0 1 1-283.507065 0 412.781167 412.781167 0 0 1-306.546014-383.982481C64.32-71.682569 288.30978-128 512.299561-128s447.979561 56.317431 447.979561 168.952292a412.781167 412.781167 0 0 1-306.546014 385.902393z m-85.756087-334.064759l-55.67746-55.037488-55.67746 55.677459L512.299561 279.6614zM320.308321 639.964962a191.99124 191.99124 0 1 0 191.99124-191.991241 191.99124 191.99124 0 0 0-191.99124 191.991241z m191.99124-703.967882c-234.229313 0-383.982481 63.99708-383.982481 104.955212A360.943532 360.943532 0 0 0 475.821225 383.976641l-85.756087-291.186715a31.99854 31.99854 0 0 1 8.31962-31.99854l91.515825-91.515824a31.99854 31.99854 0 0 1 45.437927 0L626.854334 63.99124a31.99854 31.99854 0 0 1 8.319621 31.99854L548.777897 383.976641A360.943532 360.943532 0 0 0 896.282042 40.952292C896.282042-0.00584 746.528874-64.00292 512.299561-64.00292z"  horiz-adv-x="1024" />

    
    <glyph glyph-name="kaiguan" unicode="&#58889;" d="M515.675 259.216c43.485 0 78.723 33.798 78.723 75.464V820.492C594.398 862.202 559.16 896 515.675 896S436.95 862.202 436.95 820.492V334.68c0-41.667 35.237-75.465 78.724-75.465zM836.09 681.767c-32.42 27.757-82.188 25.065-111.132-6.064-28.94-31.096-26.1-78.815 6.337-106.571 67.078-57.567 109.045-140.414 109.073-233.377-0.307-172.716-146.017-312.47-326.088-312.748-180.067 0.279-325.799 140.032-326.084 312.748 0.023 93.4 42.382 176.55 109.995 234.138 32.552 27.631 35.544 75.367 6.73 106.542-28.844 31.21-78.564 34.099-111.093 6.446l-0.024 0.04C94.012 598.218 30.717 473.738 30.744 335.754c0.047-256.161 216.47-463.715 483.537-463.755 267.06 0.04 483.485 207.595 483.525 463.755 0.026 137.388-62.671 261.383-161.715 346.012z"  horiz-adv-x="1024" />

    
    <glyph glyph-name="weizhi" unicode="&#58890;" d="M512 872.727c-179.945 0-325.818-145.873-325.818-325.818 0-143.15 206.243-420.608 290.537-518.54a46.43 46.43 0 0 1 70.562 0c84.294 97.932 290.537 375.39 290.537 518.54 0 179.945-145.873 325.818-325.818 325.818m0-69.818c141.15 0 256-114.85 256-256 0-96.14-143.313-316.067-256-452.096C399.313 230.843 256 450.77 256 546.91c0 141.15 114.85 256 256 256m0-93.09a139.636 139.636 0 0 0 0-279.274 139.636 139.636 0 0 0 0 279.273zM512 640c-38.493 0-69.818-31.325-69.818-69.818s31.325-69.818 69.818-69.818 69.818 31.325 69.818 69.818S550.493 640 512 640z m0-733.09c-151.32 0-314.182 40.051-314.182 128 0 22.9 11.66 55.947 67.165 83.339 7.192 3.56 15.034 6.982 23.506 10.24a34.91 34.91 0 0 0 25.18-65.117 213.783 213.783 0 0 1-17.756-7.704c-21.016-10.38-27.672-19.176-28.346-21.41 4.84-14.895 87.365-57.53 244.433-57.53 157.068 0 239.593 42.635 244.433 58.833-0.954 1.931-11.147 14.08-44.125 27.043a34.886 34.886 0 1 0 25.554 64.954c73.006-28.672 88.32-66.211 88.32-92.649 0-87.948-162.863-128-314.182-128z"  horiz-adv-x="1024" />

    
    <glyph glyph-name="xuanzhongx" unicode="&#58893;" d="M512 756.364c-205.312 0-372.364-167.099-372.364-372.364 0-205.335 167.052-372.364 372.364-372.364 205.335 0 372.364 167.029 372.364 372.364 0 205.312-167.029 372.364-372.364 372.364z m0-837.865C255.348-81.501 46.545 127.325 46.545 384 46.545 640.698 255.348 849.455 512 849.455S977.455 640.628 977.455 384c0-256.652-208.757-465.501-465.455-465.501z m0 232.774c-128.535 0-232.727 104.192-232.727 232.727S383.465 616.727 512 616.727 744.727 512.535 744.727 384 640.535 151.273 512 151.273z"  horiz-adv-x="1024" />

    


  </font>
</defs>
</svg>
