<?xml version="1.0" standalone="no"?>
<!DOCTYPE svg PUBLIC "-//W3C//DTD SVG 1.1//EN" "http://www.w3.org/Graphics/SVG/1.1/DTD/svg11.dtd" >
<!--
2013-9-30: Created.
-->
<svg>
<metadata>
Created by iconfont
</metadata>
<defs>

<font id="iconfont" horiz-adv-x="1024" >
  <font-face
    font-family="iconfont"
    font-weight="500"
    font-stretch="normal"
    units-per-em="1024"
    ascent="896"
    descent="-128"
  />
    <missing-glyph />
    
    <glyph glyph-name="suoding" unicode="&#58880;" d="M511.999488 836.791503C261.922883 836.791503 59.190456 634.0663589999999 59.190456 384c0-250.067382 202.732427-452.791503 452.810056-452.791503 250.076605 0 452.810056 202.723098 452.810056 452.791503C964.809544 634.0663589999999 762.076094 836.791503 511.999488 836.791503zM542.187235-6.885572000000025L542.187235 142.51099399999998c0 16.655332-13.502055 30.18651-30.187746 30.18651s-30.187746-13.531178-30.187746-30.18651l0-149.396565c-192.591048 14.680351-346.092243 168.145581-360.802873 360.699062L270.50161 353.81349c16.685691 0 30.187746 13.501502 30.187746 30.18651s-13.502055 30.18651-30.187746 30.18651L121.009893 414.18651c14.710629 192.553481 168.211825 346.019735 360.802873 360.700085l0-149.397588c0-16.685008 13.502055-30.18651 30.187746-30.18651s30.187746 13.501502 30.187746 30.18651L542.188258 774.8865949999999c192.591048-14.680351 346.092243-168.145581 360.802873-360.700085L753.49839 414.18651c-16.654991 0-30.186723-13.501502-30.186723-30.18651s13.531732-30.18651 30.186723-30.18651l149.492741 0C888.280501 161.26000999999997 734.779306 7.79375600000003 542.187235-6.885572000000025zM511.999488 474.558505c-50.027397 0-90.562216-40.533159-90.562216-90.558505s40.534819-90.558505 90.562216-90.558505 90.562216 40.533159 90.562216 90.558505S562.026885 474.558505 511.999488 474.558505z"  horiz-adv-x="1024" />

    
    <glyph glyph-name="fuzhi" unicode="&#59038;" d="M69.824 742.176 766.912 742.176 766.912 660.832 836.736 660.832 836.736 812 0 812 0 2.912 122.176 2.912 122.176 72.736 69.824 72.736ZM187.328 597.088 187.328-212 1024-212 1024 597.088 187.328 597.088zM954.176-142.176 257.152-142.176 257.152 527.264l697.024 0L954.176-142.176z"  horiz-adv-x="1024" />

    
    <glyph glyph-name="jine" unicode="&#59068;" d="M451.006334 592.652414c-6.416287-12.838854-12.837598-32.100274-12.837598-44.941639 0-12.838854 6.421311-25.676451 12.837598-38.520328 6.421311-12.838854 19.260164-25.676451 38.520328-32.099018L489.526662 618.333888C470.266498 611.912578 463.850211 605.491267 451.006334 592.652414L451.006334 592.652414zM560.149776 342.272791l0-160.502624c19.260164 6.420055 25.681475 12.838854 38.520328 25.680219 12.838854 12.840109 19.260164 32.100274 19.260164 51.360438s-6.421311 32.097762-19.260164 44.941639C592.248794 323.012626 585.832507 335.85148 560.149776 342.272791L560.149776 342.272791zM874.733714 746.732471c-199.022953 199.022953-526.444488 199.022953-725.467441 0-199.021697-199.021697-199.021697-526.441977 0-725.466185 199.022953-199.021697 526.444488-199.021697 725.467441 0C1080.177977 220.290495 1080.177977 547.710775 874.733714 746.732471L874.733714 746.732471zM675.710761 149.669893c-32.099018-32.102785-64.201803-57.78426-115.560985-64.201803l0-96.299565-70.623114 0L489.526662 85.468089c-44.936616 6.417543-83.456944 25.677707-109.138419 51.360438-32.099018 32.102785-51.359182 70.621858-57.780493 128.403607l109.138419 12.838854c0-25.682731 6.422566-44.941639 19.260164-57.780493 12.843877-12.840109 19.260164-25.681475 38.520328-32.100274l0 166.918911c-57.780493 19.260164-89.878255 38.520328-115.560985 70.62437-25.676451 32.097762-38.519073 70.61809-38.519073 115.559729 0 44.937871 12.842621 83.4582 44.941639 115.560985 25.681475 32.099018 64.201803 51.359182 109.138419 51.359182l0 57.779237 70.623114 0 0-57.779237c44.941639-6.417543 70.61809-19.260164 96.300821-44.937871 25.681475-25.681475 44.941639-57.78426 51.359182-96.304589l-109.138419-12.838854c-6.421311 32.099018-12.838854 51.359182-38.520328 64.201803l0-160.502624c64.201803-19.260164 102.722132-38.519073 128.398583-70.623114 25.681475-25.676451 38.520328-64.19678 38.520328-109.138419C720.6524 226.711805 707.809779 181.770166 675.710761 149.669893L675.710761 149.669893zM675.710761 149.669893"  horiz-adv-x="1029" />

    
    <glyph glyph-name="yanjing" unicode="&#58938;" d="M910.001131 433.894364c-50.550303 78.533634-113.946168 137.2622-190.178387 176.187745 20.315698-34.624589 30.472012-72.059176 30.472012-112.305809 0-61.540611-21.8701-114.200972-65.608254-157.982104-43.73713-43.781132-96.398514-65.650209-157.981081-65.606207-61.582567 0.041956-114.243951 21.910009-157.981081 65.606207-43.738154 43.695175-65.60723 96.356558-65.60723 157.982104 0 40.245609 10.158361 77.68122 30.470989 112.305809-76.190263-38.925544-139.583059-97.655134-190.178387-176.187745 44.249807-68.225871 99.719142-122.54808 166.414147-162.964582 66.692958-40.415478 138.985448-60.623729 216.879516-60.623729s150.187581 20.208251 216.880539 60.623729C810.280966 311.346283 865.752348 365.668493 910.001131 433.894364L910.001131 433.894364zM550.662043 625.541195c0 6.643304-2.321882 12.307304-6.962575 16.991999-4.641717 4.684696-10.30674 7.005554-16.991999 6.963599-41.608653 0-77.298504-14.885012-107.067504-44.654013-29.770024-29.769001-44.654013-65.457828-44.654013-107.066481 0-6.644327 2.320858-12.307304 6.963599-16.993023 4.64274-4.683672 10.30674-7.007601 16.991999-6.964622s12.349259 2.366907 16.991999 6.964622c4.641717 4.599761 6.963599 10.264784 6.963599 16.993023 0 28.619828 10.158361 53.064566 30.472012 73.337285s44.760436 30.429033 73.337285 30.472012c6.643304 0 12.308327 2.320858 16.991999 6.962575C548.385187 613.190913 550.705022 618.854912 550.662043 625.541195zM973.885114 433.894364c0-11.328-3.321652-22.805402-9.965979-34.431184-46.591131-76.531024-109.216447-137.837298-187.877995-183.9178-78.661547-46.079478-161.750941-69.121264-249.27125-69.12024-87.518263 0-170.609703 23.125697-249.269203 69.376067C198.841186 262.04953 136.214846 323.269847 89.623715 399.461133c-6.644327 11.626805-9.965979 23.104207-9.965979 34.432207s3.321652 22.805402 9.965979 34.432207c46.591131 76.191286 109.217471 137.411603 187.879018 183.661973 78.659501 46.251394 161.749918 69.376067 249.269203 69.376067s170.609703-23.125697 249.27125-69.376067c78.659501-46.25037 141.284817-107.470687 187.877995-183.661973C970.563462 456.699766 973.885114 445.222363 973.885114 433.894364z"  horiz-adv-x="1024" />

    
    <glyph glyph-name="bianji-copy" unicode="&#58910;" d="M533.753 588.569c62.67-62.551 124.326-124.112 188.167-187.822-2.063-1.236-5.249-2.407-7.442-4.586-93.359-92.37-186.818-184.615-279.664-277.499-12.125-12.125-25.178-19.849-41.533-24.489-63.706-18.090-127.148-37.092-190.723-55.671-14.175-4.14-25.263-0.411-32.407 10.596-4.718 7.259-4.703 15.196-2.41 23.067 20.297 69.497 40.624 138.98 61.25 208.364 1.503 5.017 4.703 10.1 8.431 13.81 96.806 96.030 193.812 191.863 290.735 287.763 2.093 2.080 3.878 4.485 5.594 6.467zM274.767 250.548c-0.973-2.905-1.733-4.985-2.358-7.113-8.581-29.104-16.107-58.576-26.107-87.186-5.212-14.915-3.775-25.41 9.241-34.271 2.407-1.635 4.485-3.942 6.284-6.268 2.837-3.713 6.006-3.815 10.213-2.542 23.794 7.193 47.669 14.153 71.53 21.167 11.934 3.516 23.873 6.998 36.649 10.724-1.996 2.279-3.087 4.075-4.647 5.199-9.819 7.111-14.171 16.55-13.282 28.695 0.345 4.522-0.267 9.125-0.529 13.693-0.775 12.673-1.584 25.346-2.41 38.317-17.457 1.434-34.037 3.165-50.655 4.023-12.131 0.627-23.579 1.837-30.988 13.17-0.463 0.707-1.371 1.137-2.935 2.389zM813.674 506.333c-59.252 59.168-118.39 118.239-178.17 177.94 14.373 13.070 25.957 30.176 44.849 39.285 22.769 10.957 51.068 5.775 71.26-14.074 29.324-28.841 58.528-57.833 87.239-87.303 26.546-27.223 26.1-63.987-0.33-91.211-8.268-8.499-16.828-16.701-24.85-24.635zM789.487 471.319c-13.313-12.475-27.142-25.41-40.642-38.048-62.169 62.169-123.946 123.932-186.053 186.037 13.612 12.755 27.422 25.707 40.622 38.085 62.074-62.058 123.798-123.787 186.073-186.073z"  horiz-adv-x="1024" />

    
    <glyph glyph-name="erweima" unicode="&#58920;" d="M840.533-128v91.733h-93.867l0-91.733h93.867zM981.333-128c23.467 0 42.667 19.2 42.667 42.667v51.2h-91.733v-93.867M371.2 802.133v-279.467l-277.333 0v279.467h277.333M422.4 896h-379.733c-23.467 0-42.667-19.2-42.667-42.667v-379.733c0-23.467 19.2-42.667 42.667-42.667h379.733c23.467 0 42.667 19.2 42.667 42.667l-0 379.733c0 23.467-19.2 42.667-42.667 42.667v0 0zM185.6 663.467c0-12.8 4.267-23.467 12.8-32s21.333-12.8 32-12.8c12.8 0 23.467 4.267 32 12.8 8.533 8.533 12.8 21.333 12.8 32 0 12.8-4.267 23.467-12.8 32-8.533 8.533-21.333 12.8-32 12.8-12.8 0-23.467-4.267-32-12.8-8.533-6.4-12.8-19.2-12.8-32v0zM930.133 802.133v-279.467l-277.333 0v279.467h277.333M981.333 896h-379.733c-23.467 0-42.667-19.2-42.667-42.667v-379.733c0-23.467 19.2-42.667 42.667-42.667l379.733 0c23.467 0 42.667 19.2 42.667 42.667v379.733c0 23.467-19.2 42.667-42.667 42.667v0 0zM744.533 663.467c0-12.8 4.267-23.467 12.8-32s21.333-12.8 32-12.8c12.8 0 23.467 4.267 32 12.8 8.533 8.533 12.8 21.333 12.8 32 0 12.8-4.267 23.467-12.8 32-8.533 8.533-21.333 12.8-32 12.8-12.8 0-23.467-4.267-32-12.8-6.4-6.4-12.8-19.2-12.8-32v0zM371.2 243.2v-279.467l-277.333-0v279.467h277.333M422.4 337.067h-379.733c-23.467 0-42.667-19.2-42.667-42.667v-379.733c0-23.467 19.2-42.667 42.667-42.667h379.733c23.467 0 42.667 19.2 42.667 42.667l-0 379.733c0 23.467-19.2 42.667-42.667 42.667v0 0zM185.6 104.533c0-12.8 4.267-23.467 12.8-32s21.333-12.8 32-12.8c12.8 0 23.467 4.267 32 12.8 8.533 8.533 12.8 21.333 12.8 32 0 12.8-4.267 23.467-12.8 32-8.533 8.533-21.333 12.8-32 12.8-12.8 0-23.467-4.267-32-12.8-8.533-8.533-12.8-21.333-12.8-32v0zM981.333 337.067h-51.2v-185.6h-93.867v185.6h-234.667c-23.467 0-42.667-19.2-42.667-42.667l0-379.733c0-23.467 19.2-42.667 42.667-42.667h51.2v281.6h93.867v-93.867l277.333-0v234.667c0 23.467-19.2 42.667-42.667 42.667v0zM981.333 337.067z"  horiz-adv-x="1024" />

    
    <glyph glyph-name="third-49" unicode="&#58967;" d="M512-128c-281.6 0-512 230.4-512 512s230.4 512 512 512 512-230.4 512-512S793.6-128 512-128zM512 832C262.4 832 64 633.6 64 384s198.4-448 448-448 448 198.4 448 448S761.6 832 512 832zM614.4 582.4c25.6-25.6 38.4-51.2 38.4-89.6 0-32-6.4-57.6-25.6-76.8C627.2 403.2 608 390.4 576 364.79999999999995 563.2 352 556.8 339.20000000000005 550.4 332.79999999999995c0-6.4-6.4-12.8-6.4-25.6 0-19.2-19.2-32-32-32l0 0c-19.2 0-38.4 19.2-32 38.4 0 12.8 6.4 25.6 6.4 32 6.4 19.2 32 44.8 70.4 76.8l12.8 12.8c12.8 12.8 19.2 32 19.2 44.8 0 19.2-6.4 38.4-19.2 51.2C556.8 550.4 537.6 556.8 512 556.8c-32 0-51.2-6.4-64-25.6C441.6 524.8 435.2 512 435.2 492.8c0-19.2-19.2-32-32-32l0 0c-19.2 0-38.4 19.2-32 44.8C377.6 537.6 390.4 556.8 403.2 576c25.6 25.6 64 38.4 108.8 38.4C556.8 614.4 595.2 608 614.4 582.4zM537.6 230.39999999999998c6.4-6.4 12.8-19.2 12.8-32 0-12.8-6.4-25.6-12.8-32-12.8-6.4-19.2-12.8-32-12.8-12.8 0-25.6 6.4-32 12.8-6.4 6.4-12.8 19.2-12.8 32 0 12.8 6.4 25.6 12.8 32 6.4 6.4 19.2 12.8 32 12.8C518.4 243.20000000000005 531.2 236.79999999999995 537.6 230.39999999999998z"  horiz-adv-x="1024" />

    
    <glyph glyph-name="dianyuan" unicode="&#58909;" d="M561.312102 827.808922l-98.624205 0 0-493.121024 98.624205 0L561.312102 827.808922zM799.735283 721.048409l-69.77618-69.77618c77.420277-63.36619 127.225613-159.27761 127.225613-267.271206 0-190.590779-154.592914-345.184717-345.184717-345.184717S166.815283 193.409221 166.815283 384c0 107.993596 49.805336 203.905016 127.225613 267.271206l-69.77618 69.77618C129.0911 639.683287 68.191078 519.115304 68.191078 384c0-245.080811 198.72811-443.808922 443.808922-443.808922s443.808922 198.72811 443.808922 443.808922C955.808922 519.115304 894.907876 639.683287 799.735283 721.048409z"  horiz-adv-x="1024" />

    
    <glyph glyph-name="icon_set_up" unicode="&#58898;" d="M511.488 238.224c-88.351 0-159.998 71.647-159.998 159.998 0 88.383 71.647 159.998 159.998 159.998 88.351 0 159.998-71.615 159.998-159.998 0-88.351-71.647-159.998-159.998-159.998M862.908 377.678c0.384 6.784 0.576 13.664 0.576 20.544 0 13.216-0.736 26.24-2.144 39.040l103.711 71.967c14.24 9.888 18.976 30.528 10.176 45.792l-96.095 166.43c-8.704 15.072-28.832 21.568-44.736 14.080l-114.175-53.823c-20.896 15.392-43.552 28.544-67.615 39.104l-10.464 118.591c-1.44 17.248-16.928 24.576-34.56 24.576h-192.19c-17.408 0-33.088-7.072-34.56-24.576l-10.464-122.143c-25.76-11.296-49.888-23.808-71.967-40.64l-121.119 57.983c-15.68 7.392-35.904 1.664-44.736-13.6l-96.095-166.206c-8.704-15.104-4.256-35.648 10.208-45.696l114.239-79.231c-0.928-10.432-1.408-20.992-1.408-31.68 0-6.88 0.192-13.696 0.576-20.512l-102.143-70.911c-14.24-9.856-18.976-30.496-10.176-45.76l96.095-166.43c8.704-15.072 28.832-21.568 44.736-14.080l98.559 46.464c25.056-20.736 53.055-38.080 83.231-51.295l10.464-132.863c1.44-17.28 16.928-38.816 34.56-38.816h192.19c17.408 0 33.088 21.312 34.56 38.816l10.464 129.311c30.176 13.216 58.143 32.32 83.199 53.055l98.591-45.568c15.68-7.392 35.904-0.736 44.736 14.528l96.095 166.654c8.704 15.072 4.224 35.872-10.208 45.888l-102.111 71.007z"  horiz-adv-x="1024" />

    
    <glyph glyph-name="xuanzeyixuan" unicode="&#58940;" d="M30.795205 831.944214C30.795205 867.321248 59.25158 896 94.850991 896L990.739418 896C1026.116451 896 1054.795203 867.543625 1054.795203 831.944214L1054.795203-63.944214C1054.795203-99.321248 1026.338829-128 990.739418-128L94.850991-128C59.473957-128 30.795205-99.543626 30.795205-63.944214L30.795205 831.944214ZM866.31377 692.712352C857.449597 700.03771 846.475043 704 835.258278 704 820.590906 704 806.829888 697.411382 797.503059 685.92423L429.990282 231.075901 285.722492 384.795827C276.540991 394.572234 263.645608 400.179008 250.342331 400.179008 237.726368 400.179008 225.756998 395.313248 216.63447 386.476646 207.179167 377.345069 201.797198 365.035674 201.47706 351.800013 201.155518 338.5444 205.948461 325.967101 214.973403 316.375949L397.330592 122.075498C406.491034 112.28199 419.383606 106.666666 432.719178 106.666666 433.157965 106.666666 434.029216 106.666666 435.158125 106.732218 448.98303 107.43048 461.85384 114.027648 470.566368 124.898477L873.007181 622.937273C881.30479 633.175388 885.169616 646.07973 883.887658 659.276916 882.610618 672.432777 876.369331 684.307536 866.31377 692.712352Z"  horiz-adv-x="1056" />

    
    <glyph glyph-name="ego-caidan" unicode="&#58927;" d="M79.954 209.276h864.092v-85.945h-864.092zM79.954 426.973h864.092v-85.945h-864.092zM79.954 644.669h864.092v-85.943h-864.092z"  horiz-adv-x="1024" />

    
    <glyph glyph-name="xunhuan" unicode="&#58952;" d="M670.925 725.059l-25.001-58.9 164.127 52.070-76.554 154.23-26.045-61.348c-160.548 69.801-352.952 46.602-493.455-75.535l61.373-70.482c112.727 97.997 266.644 116.413 395.556 59.965zM353.101 42.936l25.001 58.906-164.127-52.070 76.559-154.23 26.040 61.353c160.548-69.811 352.957-46.612 493.466 75.53l-61.379 70.482c-112.732-97.997-266.655-116.413-395.561-59.971zM170.952 543.775l58.9-25.001-52.070 164.127-154.23-76.559 61.348-26.040c-69.801-160.543-46.607-352.952 75.53-493.46l70.482 61.373c-97.987 112.732-116.403 266.65-59.96 395.561zM939.121 189.414c69.806 160.553 46.612 352.957-75.535 493.466l-70.477-61.379c97.992-112.727 116.408-266.65 59.965-395.556l-58.906 25.006 52.076-164.132 154.225 76.559-61.348 26.035z"  horiz-adv-x="1024" />

    
    <glyph glyph-name="jingzhuntoufang" unicode="&#58926;" d="M512 789.333333l377.173333-134.4-57.173333-499.2L512-21.33333300000004l-320 177.066666-57.173333 499.2L512 789.333333m0-89.6L276.053333 170.66666699999996h87.893334l47.36 118.613333h200.533333L659.2 170.66666699999996h87.466667L512 699.733333m69.12-337.066666h-137.813333L512 527.7866670000001l69.12-165.12z"  horiz-adv-x="1024" />

    
    <glyph glyph-name="quxiaozhiding" unicode="&#59179;" d="M511.872 896a511.872 511.872 0 1 1 0-1023.744A511.872 511.872 0 0 1 511.872 896z m0-93.632c98.752 0 189.44-34.24 260.992-91.52l-587.776-587.712A418.176 418.176 0 0 0 511.808 802.368z m0-836.48a416.448 416.448 0 0 0-261.056 91.52l587.776 587.776a418.176 418.176 0 0 0-326.72-679.232zM773.952 690.048h-526.08a43.008 43.008 0 0 1 0-86.08h526.08a43.008 43.008 0 1 1 0 86.08zM542.528 559.36a43.328 43.328 0 0 1-3.2 2.816c-0.448 0.448-0.96 0.768-1.472 1.152l-1.856 1.408-1.856 1.088-1.728 1.024-1.92 0.96-1.92 0.896-1.92 0.64c-0.64 0.256-1.344 0.576-2.048 0.768l-1.92 0.512-2.176 0.512-2.24 0.32-1.92 0.256a43.776 43.776 0 0 1-4.224 0.256h-0.64a42.88 42.88 0 0 1-31.04-12.608l-217.6-217.6a43.008 43.008 0 0 1 60.864-60.8L469.12 426.24v-300.48a43.008 43.008 0 1 1 86.016 0V425.152l144.128-144.128a42.88 42.88 0 0 1 60.8 0 43.008 43.008 0 0 1 0 60.8l-217.536 217.6z"  horiz-adv-x="1024" />

    
    <glyph glyph-name="tuikuan" unicode="&#58945;" d="M509.074286-128C228.205714-128 0 100.20571399999994 0 386.925714 0 667.794286 228.205714 896 509.074286 896c280.868571 0 509.074286-228.205714 509.074285-509.074286 5.851429-286.72-222.354286-514.925714-509.074285-514.925714zM509.074286 855.04c-257.462857 0-468.114286-210.651429-468.114286-468.114286s210.651429-468.114286 468.114286-468.114285 468.114286 210.651429 468.114285 468.114285-210.651429 468.114286-468.114285 468.114286zM468.114286 182.12571400000002h304.274285c-5.851429-11.702857-5.851429-23.405714-17.554285-40.96H456.411429c-58.514286 0-99.474286 23.405714-122.88 58.514286-11.702857-5.851429-35.108571-29.257143-64.365715-64.365714l-23.405714 40.96 64.365714 64.365714v175.542857h-52.662857v40.96h105.325714v-222.354286c17.554286-35.108571 52.662857-52.662857 105.325715-52.662857zM315.977143 632.685714c17.554286-23.405714 40.96-52.662857 76.068571-99.474285l-40.96-23.405715c-29.257143 40.96-52.662857 76.068571-70.217143 99.474286l35.108572 23.405714z m269.165714-333.531428v-40.96c-35.108571-11.702857-64.365714-29.257143-99.474286-40.96-11.702857-5.851429-17.554286-11.702857-29.257142-17.554286l-29.257143 40.96c11.702857 11.702857 17.554286 23.405714 17.554285 35.108571V620.982857h263.314286v-239.908571h-40.96v17.554285H485.668571v-134.582857c29.257143 5.851429 58.514286 23.405714 99.474286 35.108572z m81.92 286.72H485.668571v-58.514286h187.245715v58.514286z m0-152.137143v58.514286H485.668571v-58.514286h181.394286z m64.365714-46.811429l29.257143-35.108571c-35.108571-11.702857-64.365714-29.257143-99.474285-40.96 35.108571-23.405714 70.217143-40.96 93.622857-58.514286l-23.405715-35.108571c-58.514286 40.96-122.88 87.771429-204.8 134.582857l23.405715 29.257143c23.405714-17.554286 52.662857-29.257143 76.068571-46.811429 29.257143 11.702857 64.365714 29.257143 105.325714 52.662857z"  horiz-adv-x="1024" />

    
    <glyph glyph-name="shuju" unicode="&#58918;" d="M512.042535 807.699692c16.856615 0 29.459692-3.308308 35.209847-6.222769l339.968-170.062769-339.968-169.905231c-5.750154-2.914462-18.353231-6.222769-35.209847-6.222769s-29.459692 3.308308-35.209846 6.222769L136.78592 631.492923 476.832689 801.476923c5.750154 2.914462 18.353231 6.222769 35.209846 6.222769m0 78.769231c-25.521231 0-51.042462-4.804923-70.419692-14.493538L31.077612 666.702769c-38.754462-19.377231-38.754462-51.042462 0-70.419692l410.466462-205.272615c19.456-9.688615 44.977231-14.493538 70.498461-14.493539s51.042462 4.804923 70.419693 14.493539l410.466461 205.272615c38.754462 19.377231 38.754462 51.042462 0 70.419692L582.462228 871.975385C563.084997 881.664 537.563766 886.468923 512.042535 886.468923zM512.042535 125.715692c-31.507692 0-62.936615 6.301538-88.064 18.825846L21.782843 345.560615a39.384615 39.384615 0 1 0 35.288615 70.498462l402.116924-201.097846c27.726769-13.863385 77.981538-13.863385 105.708307 0l402.116923 201.097846a39.384615 39.384615 0 0 0 35.209846-70.498462L600.106535 144.541538a201.412923 201.412923 0 0 0-88.064-18.825846zM512.042535-118.468923c-31.507692 0-62.936615 6.301538-88.064 18.825846L21.861612 101.454769c-19.534769 9.688615-27.411692 33.319385-17.644307 52.775385s33.319385 27.254154 52.854153 17.644308l402.116924-201.097847c27.726769-13.863385 77.981538-13.863385 105.708307 0l402.116923 201.097847a39.384615 39.384615 0 1 0 35.209846-70.498462L600.106535-99.643077c-25.127385-12.603077-56.556308-18.825846-88.064-18.825846z"  horiz-adv-x="1024" />

    
    <glyph glyph-name="xunhuan1" unicode="&#59313;" d="M935.005091 436.247273a34.909091 34.909091 0 1 0 49.361454-49.361455l-78.382545-78.382545a34.816 34.816 0 0 0-49.338182 0l-78.405818 78.382545a34.909091 34.909091 0 1 0 49.361455 49.361455l14.801454-14.824728C818.525091 584.261818 678.330182 709.818182 508.928 709.818182c-130.466909 0-250.484364-76.706909-305.710545-195.397818a34.932364 34.932364 0 0 0-63.301819 29.463272C206.522182 687.104 351.418182 779.636364 508.904727 779.636364c210.152727 0 383.534545-159.953455 404.992-364.474182l21.085091 21.085091z m-73.960727-189.021091a34.932364 34.932364 0 0 0 16.965818-46.382546C811.310545 57.646545 666.461091-34.909091 508.951273-34.909091c-210.106182 0-383.534545 159.953455-404.968728 364.497455l-21.108363-21.108364a34.909091 34.909091 0 1 0-49.384727 49.361455l78.42909 78.42909a34.909091 34.909091 0 0 0 49.338182 0l78.382546-78.42909a34.909091 34.909091 0 1 0-49.338182-49.338182l-14.824727 14.801454C199.354182 160.465455 339.549091 34.909091 508.951273 34.909091c130.490182 0 250.507636 76.706909 305.710545 195.397818a34.909091 34.909091 0 0 0 46.382546 16.919273z"  horiz-adv-x="1024" />

    
    <glyph glyph-name="touxiang" unicode="&#59169;" d="M231.634 600.835c0 153.595 124.94 278.536 278.537 278.536 153.596 0 278.536-124.94 278.536-278.536 0-153.605-124.94-278.53-278.536-278.53-153.597 0-278.537 124.925-278.537 278.53zM0-118.09C5.997-50.74 38.33 187.91 286.847 315.723c61.637-48.383 139.07-77.515 223.325-77.515 84.716 0 162.568 29.428 224.37 78.306 249.591-127.274 279.721-364.251 285.8-434.597-1.482-1.434-1018.869-0.118-1020.342-0.007z m0 0"  horiz-adv-x="1036" />

    
    <glyph glyph-name="fuzhi1" unicode="&#58924;" d="M334.5 191.5V564.6H191v-499.8h499.9V191.5H386.3zM386.3 691.3V243.2h448.1V691.3z"  horiz-adv-x="1024" />

    
    <glyph glyph-name="yanjing-xiexian" unicode="&#59317;" d="M695.5 640.7c0-2.1-0.2-3.4-0.5-4-31.5-56.2-78.6-140.7-141-253.1C491.4 271 444.6 186.8 413.3 130.9l-21.9-39.7c-3-4.8-7.1-7.1-12.5-7.1-3.6 0-23.5 10.4-59.8 31.3-4.8 3-7.1 7.1-7.1 12.5 0 3.6 6.6 16.5 19.6 38.9-42.5 19.3-81.8 45.1-117.7 77.3-35.9 32.1-66.9 68.6-93.1 109.4-5.9 9.2-8.9 19.5-8.9 30.8s3 21.6 8.9 30.8C166.5 484.8 223 540 290.6 580.4S432 641.2 512 641.2c26.5 0 53.2-2.5 80.4-7.6l24.1 43.3c3 4.8 7.1 7.1 12.5 7.1 1.5 0 4.1-0.9 8.1-2.7 3.8-1.8 8.5-4.1 13.8-6.9 5.4-2.8 10.2-5.5 14.7-8.3s9.1-5.4 14.1-8.3c4.9-2.8 7.8-4.5 8.7-5.2 4.7-2.8 7.1-6.8 7.1-11.9zM359.8 216.6l34.8 62.9c-25.9 18.8-46.1 42.4-60.8 71-14.5 28.5-21.8 58.8-21.8 90.6 0 36 9.1 69.5 27.2 100.5C271 506.8 214.3 454.3 169.1 384c49.8-76.8 113.2-132.6 190.7-167.4z m167.4 323.6c4.1 4.1 6.3 9.2 6.3 15.2 0 5.9-2.1 11-6.3 15.2-4.1 4.1-9.2 6.3-15.2 6.3-37.2 0-69.1-13.3-95.8-40s-40-58.6-40-95.8c0-5.9 2.1-11 6.3-15.2 4.1-4.1 9.2-6.3 15.2-6.3 5.9 0 11 2.1 15.2 6.3 4.1 4.1 6.3 9.2 6.3 15.2 0 25.6 9.1 47.5 27.2 65.6 18.1 18.1 40 27.2 65.6 27.2 5.9 0.1 11 2.2 15.2 6.3zM912 384c0-10.4-3-20.7-8.9-30.8-11.6-19.1-27.8-40.7-48.6-64.7-44.6-51.2-96.3-90.9-155.1-119.2-58.9-28.3-121.3-42.4-187.4-42.4l33.1 59c63.1 5.4 121.5 25.7 175.2 61.1 53.7 35.4 98.6 81.1 134.6 137.1-34.3 53.2-76.2 97-125.9 131.3l28.2 50c28.3-19.1 55.4-41.8 81.5-68.3 26-26.5 47.5-53.9 64.5-82.2 5.8-10.1 8.8-20.5 8.8-30.9z m-200 57.2c0-41.4-11.7-79.1-35.3-113.1-23.5-34.1-54.6-58.6-93.3-73.4l125 224.1c2.4-13.5 3.6-26 3.6-37.6z"  horiz-adv-x="1024" />

    
    <glyph glyph-name="zhifeiji" unicode="&#59349;" d="M899.6 779c9.9-7.1 13.8-16.7 12-28.5L797.3 64.8c-1.5-8.6-6.3-15.3-14.3-20.1-4.1-2.3-8.8-3.6-13.8-3.6-3.3 0-6.9 0.8-10.7 2.3L556.3 126 448.2-5.8c-5.4-6.9-12.7-10.2-21.9-10.2-3.8 0-7.1 0.6-9.9 1.8-5.6 2.1-10.2 5.5-13.6 10.5-3.4 4.9-5.2 10.3-5.2 16.3V168.3l385.7 472.8-477.2-413-176.3 72.3c-11 4.1-17 12.3-17.8 24.6-0.6 11.9 4.1 20.7 14.3 26.4L869.1 780c4.5 2.7 9.2 4 14.3 4 6 0 11.4-1.7 16.2-5z"  horiz-adv-x="1024" />

    
    <glyph glyph-name="yuechi" unicode="&#60134;" d="M418.133333 396.8c-21.333333 34.133333-29.866667 72.533333-29.866666 115.2 0 119.466667 93.866667 213.333333 213.333333 213.333333s213.333333-93.866667 213.333333-213.333333-93.866667-213.333333-213.333333-213.333333c-46.933333 0-85.333333 12.8-123.733333 38.4l-98.133334-98.133334 46.933334-46.933333-59.733334-59.733333-46.933333 46.933333-29.866667-29.866667 46.933334-46.933333L277.333333 42.666667 170.666667 149.333333l247.466666 247.466667zM601.6 640c-72.533333 0-128-55.466667-128-128s55.466667-128 128-128 128 55.466667 128 128-59.733333 128-128 128z"  horiz-adv-x="1024" />

    
    <glyph glyph-name="lianjie" unicode="&#58897;" d="M958.250132 827.721291c-87.786911 87.786911-230.4858 87.786911-318.272711 0L386.55142 574.29529c-87.786911-87.786911-87.786911-230.4858 0-318.272711 19.688834-19.688834 42.629035-35.403775 68.098077-46.78356l26.552831 59.96966c-18.06315 7.947786-34.319986 19.146939-48.228611 33.055565-62.137238 62.137238-62.137238 163.29088 0 225.428118L686.399718 781.298995c62.137238 62.137238 163.29088 62.137238 225.428118 0 29.98483-29.98483 46.602928-70.085024 46.602928-112.533428 0-42.629035-16.618098-82.729229-46.602928-112.714059l-153.536779-153.536779 46.422296-46.422296 153.536779 153.536779c42.448404 42.448404 65.749868 98.986065 65.749868 159.316987 0 59.789028-23.301464 116.326689-65.749868 158.775092zM541.171988 570.502029l-17.340624-63.401659c26.191568-7.22526 49.493032-20.772623 69.181866-40.461457 29.98483-29.98483 46.602928-70.085024 46.602928-112.714059s-16.618098-82.548598-46.602928-112.533427L339.587229-12.034574c-30.165461-30.165461-70.085024-46.602928-112.714059-46.602928s-82.548598 16.618098-112.714059 46.602928c-30.165461 30.165461-46.602928 70.085024-46.602928 112.714059s16.618098 82.548598 46.602928 112.714059l161.303934 161.303934-46.422297 46.422296-161.303934-161.303933C25.288411 217.186805 1.806315 160.649144 1.806315 100.679485s23.482096-116.687952 65.930499-159.136356 98.986065-65.930499 159.136356-65.930499 116.687952 23.482096 159.136355 65.930499L639.435527 194.788499c42.448404 42.448404 65.749868 98.986065 65.749867 159.136355 0 60.330923-23.301464 116.868584-65.749867 159.316988-27.455989 27.275357-61.414712 47.144823-98.263539 57.260187z"  horiz-adv-x="1024" />

    
    <glyph glyph-name="pinpaixingxiang" unicode="&#58923;" d="M253.8 742.6L114.7 501.1v-81.4l367.5-412.2h52.5l367.5 422.7v55.1L768.4 742.6H253.8zM731.6 488l36.8-36.8-223.1-223.1-36.8-36.8-36.8 36.8-223.1 223.1 36.8 36.8 223.1-223.1L731.6 488z"  horiz-adv-x="1024" />

    
    <glyph glyph-name="zhiding" unicode="&#58901;" d="M512.8 896c-282.4 0-511.2-228.8-511.2-511.2s228.8-511.2 511.2-511.2 511.2 228.8 511.2 511.2-228.8 511.2-511.2 511.2z m0-959.2c-247.2 0-448 200.8-448 448s200.8 448 448 448 448-200.8 448-448-200.8-448-448-448zM722.4 644h-419.2c-17.6 0-31.2-14.4-31.2-31.2 0-17.6 14.4-31.2 31.2-31.2h419.2c17.6 0 31.2 14.4 31.2 31.2 0 16.8-13.6 31.2-31.2 31.2z m-190.4-108c-4.8 4.8-11.2 8-17.6 8.8h-1.6-4.8H505.6c-6.4-0.8-12.8-4-17.6-8.8l-190.4-190.4c-12-12-12-32 0-44.8 12-12 32-12 44.8 0l136.8 136.8v-343.2c0-17.6 14.4-31.2 31.2-31.2 17.6 0 31.2 14.4 31.2 31.2v343.2l136.8-136.8c12-12 32-12 44.8 0 12 12 12 32 0 44.8l-191.2 190.4z"  horiz-adv-x="1024" />

    
    <glyph glyph-name="lianjie1" unicode="&#58925;" d="M431.8 546c36.8 0 71.5-7.9 104.3-23.6 24.6-11.6 46.8-27.4 66.8-47.3 19.9-19.9 35.7-42.2 47.3-66.7-15.8-15.8-34.8-23.6-57-23.6-7.8 0-15.6 1.2-23.6 3.5-13.4 21.8-31.8 40.1-53.6 53.6-25.8 15.7-53.9 23.6-84.1 23.6-21 0-41.4-4-61.1-12-19.7-8-37.4-19.8-52.9-35.3l-121-121c-15.5-15.5-27.3-33.2-35.3-52.9-7.9-19.4-12-40.1-12-61.1s4-41.4 12-61.1c8-19.8 19.7-37.4 35.3-52.9 15.6-15.6 33.2-27.3 52.9-35.3 19.4-7.9 40.2-12 61.2-12s41.4 4 61.1 12c19.7 8 37.4 19.8 52.9 35.3l84.7 84.7c26.9-7.3 54.7-11 83.5-11 4.6 0 11.1 0.2 19.5 0.6-3.2-3.5-6.4-7-9.7-10.4l-121-121c-23.3-23.3-49.7-40.9-79.3-52.9-29.1-11.9-60.3-18-91.8-18s-62.2 6-91.8 18.1c-29.7 12.1-56.1 29.7-79.3 52.8-23.3 23.3-40.9 49.7-52.9 79.2-11.9 29.1-18 60.3-18 91.8s6.1 62.7 18 91.8c12 29.5 29.6 55.9 52.9 79.2l121 121c2.3 2.3 5.8 5.5 10.4 9.8 22.5 20 47.6 35.1 75.3 45.5 27.7 10.3 56.1 15.5 85.3 15.6zM714.1 828.2c31.5 0 62.7-6.1 91.8-18 29.5-11.9 55.9-29.6 79.3-52.9 23.3-23.3 41-49.7 52.9-79.2 11.9-29.2 18-60.3 17.9-91.8 0-31.5-6.1-62.1-18.1-91.8-12.1-29.7-29.7-56.1-52.8-79.2l-121-121c-2.3-2.4-5.8-5.6-10.4-9.8-22.4-20-47.5-35.1-75.3-45.5-27.3-10.3-56.2-15.6-85.4-15.6-36.7 0-71.5 7.9-104.3 23.6-24.6 11.6-46.8 27.4-66.8 47.3-19.9 19.9-35.7 42.2-47.3 66.7 15.7 15.8 34.7 23.6 57 23.6 7.8 0 15.7-1.2 23.6-3.5 13.4-21.8 31.7-40.1 53.5-53.6 25.9-15.7 53.9-23.6 84.1-23.6 21 0 41.4 4 61.1 12 19.8 8 37.4 19.8 52.9 35.3l121 121c15.6 15.5 27.3 33.2 35.3 52.9 7.9 19.4 12 40.1 12 61.1s-4 41.4-12 61.1c-8 19.8-19.8 37.4-35.3 52.9-15.6 15.6-33.2 27.3-52.9 35.3-19.4 7.9-40.2 12-61.1 12-21 0-41.4-4-61.1-12-19.8-8-37.4-19.8-52.9-35.3L515 615.5c-26.9 7.3-54.7 11-83.5 11-4.6 0-11.1-0.2-19.5-0.6 3.2 3.5 6.4 7 9.8 10.4l121 121c23.1 23.1 49.5 40.7 79.2 52.8 29.9 12.1 60.5 18.2 92.1 18.1z m0 0"  horiz-adv-x="1024" />

    
    <glyph glyph-name="gongneng" unicode="&#58883;" d="M426.4 409.1H149c-26.1 0-47.3 21.2-47.3 47.3V733.8c0 26.1 21.2 47.3 47.3 47.3h277.3c26.1 0 47.3-21.2 47.3-47.3v-277.3c0-26.1-21.2-47.4-47.2-47.4zM149 753c-10.6 0-19.3-8.6-19.3-19.3v-277.3c0-10.6 8.6-19.3 19.3-19.3h277.3c10.6 0 19.3 8.6 19.3 19.3V733.8c0 10.6-8.6 19.3-19.3 19.3H149z m726-343.9H597.6c-26.1 0-47.3 21.2-47.3 47.3V733.8c0 26.1 21.2 47.3 47.3 47.3H875c26.1 0 47.3-21.2 47.3-47.3v-277.3c-0.1-26.1-21.3-47.4-47.3-47.4zM597.6 753c-10.6 0-19.3-8.6-19.3-19.3v-277.3c0-10.6 8.6-19.3 19.3-19.3H875c10.6 0 19.3 8.6 19.3 19.3V733.8c0 10.6-8.6 19.3-19.3 19.3H597.6zM426.4-23.7H149c-26.1 0-47.3 21.2-47.3 47.3V300.9c0 26.1 21.2 47.3 47.3 47.3h277.3c26.1 0 47.3-21.2 47.3-47.3v-277.3c0-26.1-21.2-47.3-47.2-47.3zM149 320.2c-10.6 0-19.3-8.6-19.3-19.3v-277.3c0-10.6 8.6-19.3 19.3-19.3h277.3c10.6 0 19.3 8.6 19.3 19.3V300.9c0 10.6-8.6 19.3-19.3 19.3H149z m726-343.9H597.6c-26.1 0-47.3 21.2-47.3 47.3V300.9c0 26.1 21.2 47.3 47.3 47.3H875c26.1 0 47.3-21.2 47.3-47.3v-277.3c-0.1-26.1-21.3-47.3-47.3-47.3zM597.6 320.2c-10.6 0-19.3-8.6-19.3-19.3v-277.3c0-10.6 8.6-19.3 19.3-19.3H875c10.6 0 19.3 8.6 19.3 19.3V300.9c0 10.6-8.6 19.3-19.3 19.3H597.6z"  horiz-adv-x="1024" />

    
    <glyph glyph-name="fubiao" unicode="&#58884;" d="M894.546 26.122c0.113-5.202-4.035-9.523-9.237-9.615-0.174 0-0.624-0.02-1.32-0.02-9.114 0-60.55 1.3-89.426 29.583-4.404 4.321-8.05 9-10.978 14.08-27.678-40.039-101.888-43.48-105.738-43.643h-0.174c-0.174 0-0.625-0.02-1.321-0.02-9.114 0-60.55 1.3-89.426 29.583-4.403 4.321-8.059 9-10.977 14.08-21.985-31.795-73.298-40.52-95.406-42.824a9.218 9.218 0 0 0-3.646-0.82c-0.184 0-0.635-0.02-1.33-0.02-0.912 0-2.356 0.041-4.056 0.082-0.625-0.02-1.075-0.061-1.29-0.061-0.87-0.062-1.7 0.061-2.509 0.215-17.848 0.962-57.498 5.775-81.572 29.338-4.393 4.32-8.048 9-10.967 14.08-21.76-31.478-72.274-40.336-94.75-42.763a9.094 9.094 0 0 0-3.769-0.88c-0.174 0-0.635-0.02-1.32-0.02-0.984 0-2.54 0.04-4.425 0.102-0.737-0.041-1.249-0.082-1.484-0.082-0.922-0.062-1.803 0.061-2.642 0.256-18.166 1.044-57.14 6.041-80.896 29.296-4.393 4.322-8.049 9.001-10.967 14.08C147.24 20.091 73.032 16.65 69.18 16.486c-5.242-0.338-9.594 3.86-9.8 9.063-0.204 5.202 3.851 9.584 9.063 9.8 0.973 0.04 97.905 4.597 97.905 58.736 0 5.202 4.219 9.441 9.441 9.441 5.212 0 9.431-4.239 9.431-9.44 0-14.101 4.547-25.396 13.886-34.54 20.51-20.081 57.58-23.501 71.567-24.085 13.762 0.963 95.918 8.755 95.918 58.624 0 5.202 4.219 9.441 9.431 9.441 5.222 0 9.441-4.239 9.441-9.44 0-14.101 4.547-25.396 13.886-34.54 20.654-20.224 58.132-23.563 71.895-24.105 13.056 0.9 96.143 8.499 96.143 58.644 0 5.202 4.23 9.441 9.441 9.441s9.442-4.239 9.442-9.44c0-14.101 4.536-25.396 13.885-34.54 25.344-24.822 76.032-24.198 77.087-24.177 2.888 0.123 97.782 5.12 97.782 58.716 0 5.202 4.229 9.441 9.44 9.441s9.442-4.239 9.442-9.44c0-14.101 4.537-25.396 13.886-34.54 25.477-24.966 76.615-24.177 77.148-24.177 5.345 0.154 9.503-4.024 9.605-9.247z m70.093 87.06c0.112-5.201-4.035-9.522-9.237-9.635h-1.32c-9.114 0-60.55 1.3-89.427 29.583-4.403 4.301-8.048 9.001-10.977 14.08C826 107.172 751.79 103.71 747.94 103.567h-0.092c-0.031 0-0.052-0.02-0.082-0.02h-1.321c-5.458 0-26.133 0.543-48.026 7.004 0.072 0.164 0.123 0.317 0.195 0.481-15.77 3-34.263 9.042-46.684 21.197-9.35 9.165-13.886 20.46-13.886 34.54 0 5.222-4.229 9.44-9.441 9.44s-9.441-4.218-9.441-9.44c0-50.135-83.078-57.744-96.144-58.624-13.762 0.542-51.24 3.86-71.895 24.084-9.339 9.165-13.885 20.46-13.885 34.54a9.43 9.43 0 0 1-9.442 9.44c-5.212 0-9.43-4.218-9.43-9.44 0-33.885-37.858-48.261-66.489-54.365h0.01-0.02c-0.932-0.204-1.884-0.42-2.785-0.604-0.39 0.277-0.727 0.645-1.117 0.922-19.19 1.423-55.142 7.004-77.65 29.04-4.392 4.322-8.048 9.002-10.967 14.08C231.66 115.805 157.45 112.365 153.6 112.2c-5.243-0.338-9.585 3.86-9.79 9.062s3.84 9.585 9.053 9.8c0.983 0.04 97.904 4.598 97.904 58.736 0 5.202 4.23 9.442 9.442 9.442 5.222 0 9.44-4.24 9.44-9.442 0-14.1 4.537-25.395 13.886-34.54 11.1-10.884 26.952-16.762 41.431-20.039-16.005 20.316-25.722 45.804-25.722 73.677v45.722c0 61.399-4.025 73.257 48.384 74.639l93.91 322.54c-0.501 3.799-0.85 7.68-0.85 11.622 0 48.66 39.445 88.105 88.095 88.105 48.22 0 87.337-38.759 88.034-86.825l97.72-335.596c47.862-1.935 43.745-14.776 43.745-74.475v-45.732c0-33.044-13.527-62.802-35.174-84.46 13.445-2.058 23.757-2.017 24.228-2.017 2.887 0.144 97.781 5.14 97.781 58.716 0 5.223 4.23 9.442 9.442 9.442s9.441-4.22 9.441-9.442c0-14.08 4.536-25.385 13.885-34.54 25.478-24.964 76.616-24.176 77.149-24.176 5.345 0.144 9.492-4.024 9.605-9.236zM686.305 329.422L602.88 615.956c-15.657-24.422-42.967-40.642-74.127-40.642-29.133 0-54.887 14.223-70.933 36.024l-82.084-281.917h310.57z"  horiz-adv-x="1024" />

    
    <glyph glyph-name="zhuanpanshezhi" unicode="&#58885;" d="M539 522l-27 131.6-25-131.2c-27.2-4.9-53.4-17.9-74.4-38.9-54.9-54.9-54.9-143.9 0-198.8 54.9-54.9 143.9-54.9 198.8 0 54.9 54.9 54.9 143.9 0 198.8-20.6 20.5-45.9 33.3-72.4 38.5zM512 896C229.2 896 0 666.8 0 384s229.2-512 512-512 512 229.2 512 512S794.8 896 512 896z m316.8-828.8L629.5 266.6c-21.4-21.3-47.2-35.7-74.4-43l73-272.5c-37.6-10.1-76.4-15.1-116-15.1s-78.4 5.1-116 15.1l73 272.5c-27.2 7.2-53 21.6-74.4 43L195.2 67.2c-41.2 41.2-73.5 89.1-96 142.4-8.1 19.1-14.8 38.6-20.1 58.4l272.4 73c-7.5 28.2-7.5 57.9 0 86L79.1 500c5.3 19.8 12 39.3 20.1 58.4 22.6 53.3 54.9 101.3 96 142.4l199.3-199.3c21.4 21.3 47.2 35.7 74.4 43L396 816.9c37.6 10 76.4 15.1 116 15.1s78.4-5.1 116-15.1l-73-272.4c27.2-7.3 53-21.6 74.4-43l199.3 199.4c41.2-41.2 73.5-89.1 96-142.4 8.1-19.1 14.8-38.6 20.1-58.4l-272.5-73c7.5-28.1 7.5-57.8 0-86l272.5-73c-5.3-19.8-12-39.3-20.1-58.4-22.4-53.4-54.8-101.3-95.9-142.5z"  horiz-adv-x="1024" />

    
    <glyph glyph-name="zujian-danchuang" unicode="&#58886;" d="M742.4 640H409.6c-56.32 0-102.4-46.08-102.4-102.4v-358.4c0-56.32 46.08-102.4 102.4-102.4h332.8v-25.6c0-43.52-33.28-76.8-76.8-76.8H256c-43.52 0-76.8 33.28-76.8 76.8V640c0 43.52 33.28 76.8 76.8 76.8h409.6c43.52 0 76.8-33.28 76.8-76.8zM409.6 588.8H896c28.16 0 51.2-23.04 51.2-51.2v-358.4c0-28.16-23.04-51.2-51.2-51.2H409.6c-28.16 0-51.2 23.04-51.2 51.2V537.6c0 28.16 23.04 51.2 51.2 51.2z"  horiz-adv-x="1024" />

    
    <glyph glyph-name="moban" unicode="&#58887;" d="M972.224 102.08V789.184A56.96 56.96 0 0 1 915.2 846.208H229.44a57.024 57.024 0 0 1-57.024-57.024v-65.152c0-0.832-0.64-1.472-1.472-1.472h-63.168a57.024 57.024 0 0 1-57.024-57.024v-685.76a56.96 56.96 0 0 1 57.024-57.024h685.76a56.96 56.96 0 0 1 57.024 57.024v65.152c0 0.832 0.64 1.472 1.472 1.472H916.8a55.744 55.744 0 0 1 55.424 55.68zM217.152 798.016c0 1.984 1.6 3.456 3.456 3.456H922.56c2.688 0 4.928-2.24 4.928-4.928v-700.48a4.992 4.992 0 0 0-4.928-4.928h-70.656a1.472 1.472 0 0 0-1.472 1.472l2.112 572.224a56.96 56.96 0 0 1-57.024 57.024l-576.896 0.704a1.472 1.472 0 0 0-1.472 1.472V798.016z m585.088-830.4H100.352a4.928 4.928 0 0 0-4.928 4.928v700.48c0 2.688 2.176 4.928 4.928 4.928l702.592-0.704c2.688 0 4.928-2.24 4.928-4.928L805.76-28.8a3.52 3.52 0 0 0-3.52-3.584z m0 0M456.192 538.112a55.488 55.488 0 0 1-53.568 55.424H247.232a55.488 55.488 0 0 1-53.632-55.424v-139.328c0-30.656 24.896-55.552 55.552-55.552h151.616a55.552 55.552 0 0 1 55.552 55.552V538.112h-0.128z m-44.608-146.688a3.456 3.456 0 0 0-3.456-3.456H241.664a3.456 3.456 0 0 0-3.456 3.456V545.472c0 1.984 1.6 3.456 3.456 3.456H408c1.984 0 3.456-1.6 3.456-3.456v-154.048h0.128z m290.56 146.688a55.488 55.488 0 0 1-53.632 55.424h-91.52a55.488 55.488 0 0 1-53.568-55.424V92.16c0-30.656 24.896-55.552 55.552-55.552h87.616a55.552 55.552 0 0 1 55.552 55.552V538.112z m-44.608-453.376a3.456 3.456 0 0 0-3.456-3.456H551.616a3.456 3.456 0 0 0-3.456 3.456V545.408c0 1.984 1.6 3.456 3.456 3.456h102.336c1.984 0 3.456-1.6 3.456-3.456v-460.672h0.128zM459.072 231.808a55.488 55.488 0 0 1-53.632 55.424H249.92a55.488 55.488 0 0 1-53.632-55.424V92.48c0-30.656 24.896-55.552 55.552-55.552h151.616a55.552 55.552 0 0 1 55.552 55.552V231.808z m-44.8-146.688a3.456 3.456 0 0 0-3.456-3.456H244.48a3.456 3.456 0 0 0-3.456 3.456V239.168c0 1.984 1.6 3.456 3.456 3.456h166.336c1.984 0 3.456-1.6 3.456-3.456V85.12z m0 0"  horiz-adv-x="1024" />

    
    <glyph glyph-name="leimupinleifenleileibie" unicode="&#58888;" d="M320 384H192c-70.4 0-128-57.6-128-128v-128c0-70.4 57.6-128 128-128h128c70.4 0 128 57.6 128 128V256c0 70.4-57.6 128-128 128z m64-256c0-35.2-28.8-64-64-64H192c-35.2 0-64 28.8-64 64V256c0 35.2 28.8 64 64 64h128c35.2 0 64-28.8 64-64v-128zM768 832H640c-70.4 0-128-57.6-128-128v-128c0-70.4 57.6-128 128-128h128c70.4 0 128 57.6 128 128V704c0 70.4-57.6 128-128 128z m64-256c0-35.2-28.8-64-64-64H640c-35.2 0-64 28.8-64 64V704c0 35.2 28.8 64 64 64h128c35.2 0 64-28.8 64-64v-128z m-64-192H640c-70.4 0-128-57.6-128-128v-128c0-70.4 57.6-128 128-128h128c70.4 0 128 57.6 128 128V256c0 70.4-57.6 128-128 128z m64-256c0-35.2-28.8-64-64-64H640c-35.2 0-64 28.8-64 64V256c0 35.2 28.8 64 64 64h128c35.2 0 64-28.8 64-64v-128zM320 832H192c-70.4 0-128-57.6-128-128v-128c0-70.4 57.6-128 128-128h128c70.4 0 128 57.6 128 128V704c0 70.4-57.6 128-128 128z m64-256c0-35.2-28.8-64-64-64H192c-35.2 0-64 28.8-64 64V704c0 35.2 28.8 64 64 64h128c35.2 0 64-28.8 64-64v-128z"  horiz-adv-x="1024" />

    
    <glyph glyph-name="shouqi" unicode="&#58889;" d="M914.4 221.1H394.7c-25.2 0-45.6 22-45.6 48.9s20.4 48.9 45.6 48.9h519.7c25.2 0 45.6-22 45.6-48.9s-20.4-48.9-45.6-48.9z m0 228.1H394.7c-25.2 0-45.6 22-45.6 48.9s20.4 48.9 45.6 48.9h519.7c25.2 0 45.6-22 45.6-48.9s-20.4-48.9-45.6-48.9z m-3.3 219.9H115.3c-26.9 0-50.5 20.4-51.3 47.2-0.8 27.7 21.2 50.5 48.9 50.5h795.8c26.9 0 50.5-20.4 51.3-47.2 0.8-27.7-21.2-50.5-48.9-50.5zM291.3 221.9V546.1L64 384l227.3-162.1c0-0.8 0-0.8 0 0z m-178.4-123h795.8c26.9 0 50.5-20.4 51.3-47.2 0.8-27.7-21.2-50.5-48.9-50.5H115.3c-26.9 0-50.5 20.4-51.3 47.2-0.8 27.7 21.2 50.5 48.9 50.5z"  horiz-adv-x="1024" />

    
    <glyph glyph-name="zhankai" unicode="&#58890;" d="M914.4 221.1H394.7c-25.2 0-45.6 22-45.6 48.9s20.4 48.9 45.6 48.9h519.7c25.2 0 45.6-22 45.6-48.9s-20.4-48.9-45.6-48.9z m0 228.1H394.7c-25.2 0-45.6 22-45.6 48.9s20.4 48.9 45.6 48.9h519.7c25.2 0 45.6-22 45.6-48.9s-20.4-48.9-45.6-48.9z m-3.3 219.9H115.3c-26.9 0-50.5 20.4-51.3 47.2-0.8 27.7 21.2 50.5 48.9 50.5h795.8c26.9 0 50.5-20.4 51.3-47.2 0.8-27.7-21.2-50.5-48.9-50.5zM64 221.9V546.1L291.3 384 64 221.9c0-0.8 0-0.8 0 0z m48.9-123h795.8c26.9 0 50.5-20.4 51.3-47.2 0.8-27.7-21.2-50.5-48.9-50.5H115.3c-26.9 0-50.5 20.4-51.3 47.2-0.8 27.7 21.2 50.5 48.9 50.5z"  horiz-adv-x="1024" />

    
    <glyph glyph-name="iconfonttubiao_shipinhuifang" unicode="&#58928;" d="M482.762 237.171l175.534 112.306c12.639 8.073 19.849 20.682 19.849 34.523 0 13.844-7.284 26.369-19.849 34.442l-175.534 112.39c-6.838 4.287-13.753 6.509-20.591 6.509-19.259 0-33.307-17.305-33.307-41.035v-224.612c0-23.814 13.975-41.035 33.307-41.035 6.837 0 13.753 2.141 20.591 6.512zM512.004 769c-211.755 0-385.003-173.248-385.003-385a372.515 372.515 0 0 1 53.6-193.353c2.484-4.156 61.643 53.17 177.401 171.966L207.85 407.102C219.4 568.799 350.3 691.999 515.851 691.999c169.401 0 308.002-138.598 308.002-307.999S685.252 75.998 515.851 75.998c-57.749 0-111.648 15.402-157.85 42.354l-57.753-53.899C361.848 25.949 434.999-1 512.004-1c211.749 0 384.997 173.251 384.997 385 0 211.752-169.398 385-384.997 385z"  horiz-adv-x="1024" />

    
    <glyph glyph-name="shouqi1" unicode="&#58891;" d="M823.5 797q41.5 0 41.5-41.5v-747q0-41.5-41.5-41.5T782 8.5v747Q782 797 823.5 797zM603.5 37.17L244.89 382 603.5 726.83a40.31 40.31 0 0 1 12.5 29c0 36.58-46 54.9-72.88 29L184.51 440.06c-33.35-32.07-33.35-84.05 0-116.12l358.61-344.83c26.89-25.87 72.88-7.55 72.88 29a40.31 40.31 0 0 1-12.5 29.06z"  horiz-adv-x="1024" />

    
    <glyph glyph-name="zhankai1" unicode="&#58892;" d="M204.24-31q-41.47 0-41.47 41.47V757.53q0 41.47 41.47 41.47t41.47-41.47v-747.06q0-41.47-41.47-41.47zM424.09 39.17L782.44 384 424.09 728.83a40.31 40.31 0 0 0-12.5 29c0 36.58 46 54.9 72.83 29l358.36-344.77c33.32-32.07 33.32-84.05 0-116.12L484.42-18.89c-26.87-25.87-72.83-7.55-72.83 29a40.31 40.31 0 0 0 12.5 29.06z"  horiz-adv-x="1024" />

    
    <glyph glyph-name="zhanghao" unicode="&#58893;" d="M500.49 212.033c-46.138 0-90.812 9.071-132.95 26.824-40.675 17.167-77.156 41.846-108.565 73.157s-55.99 67.89-73.157 108.564c-17.85 42.139-26.824 86.813-26.824 132.95 0 46.138 9.072 90.813 26.824 132.95 17.168 40.676 41.846 77.157 73.157 108.566S326.865 851.033 367.54 868.2C409.678 886.05 454.352 895.025 500.49 895.025s90.812-9.072 132.95-26.825c40.675-17.167 77.156-41.845 108.565-73.156s55.99-67.89 73.157-108.565c17.85-42.138 26.824-86.813 26.824-132.95s-9.072-90.812-26.824-132.95c-17.168-40.676-41.846-77.157-73.157-108.565s-67.89-55.99-108.565-73.157c-42.138-17.753-86.812-26.824-132.95-26.824z m0 620.662c-153.824 0-279.069-125.244-279.069-279.166s125.245-279.07 279.069-279.07c153.922 0 279.069 125.245 279.069 279.07S654.412 832.695 500.49 832.695zM33.36-128c-3.317 0-6.633 0.488-9.95 1.658-16.387 5.463-25.166 23.215-19.703 39.505 17.265 51.405 42.333 99.59 74.522 143.387a523.471 523.471 0 0 0 113.344 113.052c90.13 65.938 196.938 100.761 308.917 100.761s218.788-34.823 308.917-100.761c43.406-31.701 81.448-69.743 113.344-113.052 32.189-43.796 57.257-92.08 74.522-143.387 5.463-16.387-3.316-34.042-19.703-39.505-16.387-5.462-34.042 3.317-39.505 19.704-63.11 188.16-238.881 314.574-437.575 314.574-198.596 0-374.465-126.415-437.575-314.672C58.525-119.709 46.43-128 33.359-128z"  horiz-adv-x="1024" />

    
    <glyph glyph-name="mima" unicode="&#58894;" d="M908.702675-127.74916H162.219287c-38.389969-4.264997-72.515941 46.922962-72.515941 72.51594V426.782385c0 51.186958 55.453955 85.31193 85.31293 85.31193h42.655965V640.06321C217.672241 785.093091 371.234115 896 516.265997 896s298.592755-110.905909 298.592755-255.93679v-127.968895h42.655965c34.124972 0 85.31293-29.859976 85.31293-85.31193v-482.015605c-4.265997-25.592979 4.264997-72.514941-34.124972-72.51494zM725.279825 640.06421c0 98.10892-115.171906 170.62486-213.280825 170.62486s-213.280825-72.515941-213.280825-170.62486v-127.968895H725.279825V640.06321zM853.24972 426.782385h-682.49944v-469.218615h682.49944l12.79699-12.79699-12.79699 482.015605z m-298.593755-243.139801v-98.109919c0-25.593979-17.061986-42.655965-42.655965-42.655965s-42.655965 21.327983-42.655965 42.655965v98.109919c-25.593979 12.79599-42.655965 42.654965-42.655965 72.514941 0 46.921962 38.389969 85.31193 85.31193 85.31193s85.31193-38.389969 85.31193-85.31193c0-29.859976-17.061986-59.718951-42.655965-72.515941z"  horiz-adv-x="1024" />

    
    <glyph glyph-name="celveshuju" unicode="&#58895;" d="M160 64h704v-64H160z m108.8 268.8l159.04-127.2 111.04 237.92L681.44 316.8l210.88 404.32-56.64 29.76L662.56 419.2 517.12 548.48 404.16 306.4 243.2 435.2 130.56 172.64l58.88-25.28L268.8 332.8z"  horiz-adv-x="1024" />

    
    <glyph glyph-name="jianceshuju" unicode="&#58896;" d="M979.43-48.578H79.422V856.29A39.711 39.711 0 0 1 39.711 896 39.711 39.711 0 0 1 0 856.289V-128h979.43a39.711 39.711 0 0 1 39.711 39.711 39.711 39.711 0 0 1-39.71 39.711zM1027.94 611.653a39.695 39.695 0 0 1-56.156 0L680.74 320.626l-217.85 180.74a27.876 27.876 0 0 1-37.967-2.227L253.839 319.52a40.21 40.21 0 0 1 0.67-56.156 40.225 40.225 0 0 1 56.841 0l142.4 142.415 201.482-169.403a41.486 41.486 0 0 1 56.063 2.414l316.645 316.707a39.695 39.695 0 0 1 0 56.156z"  horiz-adv-x="1039" />

    
    <glyph glyph-name="sucaishuju" unicode="&#58899;" d="M963.66 639.393c0 0.244 0 0.607-0.126 0.851 0 0.369 0 0.614-0.119 0.978 0 0.369-0.119 0.733-0.119 1.104 0 0.244 0 0.487-0.126 0.725 0 0.369-0.119 0.859-0.244 1.222 0 0.244-0.119 0.369-0.119 0.613-0.126 0.365-0.126 0.852-0.245 1.216 0 0.244-0.126 0.369-0.126 0.613-0.119 0.365-0.244 0.734-0.364 1.222-0.126 0.244-0.126 0.49-0.244 0.609l-0.369 1.095c-0.119 0.245-0.119 0.49-0.244 0.734-0.121 0.369-0.245 0.613-0.365 0.978-0.126 0.244-0.244 0.613-0.369 0.851-0.119 0.244-0.238 0.613-0.364 0.859-0.119 0.364-0.244 0.607-0.364 0.977l-0.371 0.734c-0.119 0.364-0.364 0.725-0.487 0.971-0.119 0.245-0.244 0.371-0.364 0.614-0.244 0.364-0.369 0.733-0.614 1.097-0.119 0.126-0.244 0.369-0.364 0.487l-0.733 1.097c-0.119 0.126-0.244 0.369-0.365 0.487-0.244 0.369-0.487 0.733-0.733 0.978-0.126 0.244-0.244 0.369-0.487 0.613-0.245 0.238-0.49 0.607-0.734 0.851-0.244 0.245-0.487 0.49-0.607 0.734-0.244 0.244-0.369 0.487-0.614 0.733-0.851 0.972-1.829 1.83-2.681 2.682-0.245 0.244-0.49 0.369-0.734 0.614-0.244 0.244-0.487 0.487-0.733 0.607-0.245 0.244-0.614 0.487-0.859 0.733-0.238 0.121-0.364 0.365-0.607 0.49-0.365 0.244-0.734 0.487-0.978 0.733-0.119 0.119-0.364 0.244-0.487 0.365l-1.097 0.733c-0.119 0.119-0.364 0.244-0.487 0.364-0.365 0.244-0.734 0.369-1.097 0.614-0.244 0.119-0.369 0.244-0.613 0.364-0.365 0.126-0.734 0.369-0.972 0.487l-0.734 0.369c-0.369 0.121-0.613 0.245-0.977 0.365-0.244 0.126-0.614 0.244-0.859 0.369-0.244 0.119-0.607 0.238-0.851 0.364-0.365 0.119-0.609 0.244-0.978 0.364-0.244 0.126-0.487 0.126-0.733 0.245l-1.097 0.369c-0.244 0.119-0.487 0.119-0.609 0.244-0.369 0.119-0.733 0.244-1.22 0.364-0.245 0-0.371 0.126-0.614 0.126-0.364 0.119-0.851 0.244-1.216 0.244-0.244 0-0.487 0.121-0.613 0.121-0.364 0.126-0.852 0.126-1.222 0.244-0.244 0-0.482 0.126-0.725 0.126-0.369 0-0.734 0.119-1.104 0.119-0.364 0-0.607 0-0.978 0.126-0.244 0-0.607 0-0.851 0.119H684.147c-21.604 0-39.062-17.456-39.062-39.062 0-21.604 17.458-39.055 39.062-39.055h146.102l-3.171-3.177-217.27-217.265 0.369-0.369-49.676-49.676-155.87 155.87c-7.694 7.689-17.827 11.472-27.953 11.472-10.13 0.126-20.263-3.659-27.952-11.472L66.28 201.444c-15.258-15.258-15.258-40.041 0-55.298 15.258-15.258 40.033-15.258 55.291 0l255.108 255.11 155.746-155.751c7.813-7.815 17.945-11.593 28.076-11.474 10.126-0.119 20.382 3.659 28.07 11.474l182.964 182.969c0.734 0.734 1.347 1.342 1.956 2.075l111.564 111.564v-146.109c0-21.604 17.451-39.06 39.055-39.06s39.062 17.456 39.062 39.06V631.089c0 0.244 0.126 0.49 0.126 0.614 0 0.244 0.119 0.487 0.119 0.733 0 0.364 0.119 0.734 0.119 1.097s0 0.607 0.126 0.977c0 0.245 0 0.609 0.119 0.852-0.122 1.466-0.122 2.807-0.122 4.03z m0 0z"  horiz-adv-x="1024" />

    
    <glyph glyph-name="chongzhi" unicode="&#58881;" d="M463.74115556-30.24113778000003c-233.97262222 0-424.30008889 190.32746667-424.30008889 424.27733334 0 233.97262222 190.32746667 424.32284445 424.30008889 424.32284445 233.99537778 0 424.34673778-190.35022222 424.34673778-424.32284445a23.30168889 23.30168889 0 1 0-46.60337778 0c0 208.27022222-169.44924445 377.71946667-377.74336 377.71946666-208.27022222 0-377.69671111-169.44924445-377.69671111-377.71946666s169.42648889-377.67395555 377.69671111-377.67395556c160.26851555 0 253.84846222 99.73077333 304.10979556 183.40750223a23.30168889 23.30168889 0 0 0 39.96216889-23.9775289c-80.99612445-134.77660445-199.97468445-206.03335111-344.07196445-206.03335111zM524.83754667 474.44977778c35.83886222-36.09372445 64.59164445-67.97084445 86.24014222-95.65297778l-24.44401777-17.82556445c-7.22261333 9.41397333-14.5408 18.75740445-21.99665778 27.93813334-17.22026667-0.48924445-33.50755555-0.93297778-48.88689778-1.42222221v-103.69137779c0-10.48576 1.28227555-17.10307555 3.82179556-19.89973334 3.05265778-4.19384889 9.20462222-6.29191111 18.52416-6.2919111H571.27822223c15.35544889 0 23.97752889 5.82542222 25.84120889 17.45351111 1.60768 9.78602667 2.88995555 25.02542222 3.82179555 45.74094223 8.36494222-3.26200889 18.61859555-6.73450667 30.71203556-10.46186667-1.63157333-16.28842667-3.58855111-31.08408889-5.91872-44.34375112-3.72849778-21.64736-19.89973333-32.48241778-48.56035556-32.48241778h-43.99445333c-17.45351111 0-29.45365333 3.72849778-35.97653333 11.1616-6.5024 6.29191111-9.76440889 17.82556445-9.76440889 34.55658668v107.21052443c-23.04568889-0.81578667-43.76007111-1.56103111-62.14542223-2.28351999-1.28227555-37.70140445-8.73813333-67.34165333-22.34595555-88.84906667-18.40924445-29.57084445-51.80074667-52.73144889-100.22115555-69.46133334-4.66033778 7.66520889-10.48576 16.28728889-17.47626667 25.81617779 46.32348445 14.42474667 77.52476445 34.55772445 93.57994667 60.42282666 11.53365333 18.26816 17.87221333 41.89639111 19.03729777 70.88355555-15.35544889-0.69973333-28.59235555-1.42222222-39.63676444-2.09692444-6.75726222-0.48924445-16.05404445-2.35406222-27.93813333-5.59331555l-14.30755556 30.03619555c12.32668445 2.79665778 23.16174222 8.36494222 32.48355556 16.75377778a687.77301333 687.77301333 0 0 1 64.77824 70.53425778h-121.35537778v25.84120888h164.46350222a414.00092445 414.00092445 0 0 1-22.69639111 36.32810667l24.79217777 13.95712001c8.36608-11.39370667 17.22140445-24.76942222 26.54208-40.14876446l-18.52529777-10.13646222h160.29240889v-25.84120888H451.15847112a1250.27555555 1250.27555555 0 0 0-78.92309333-83.81553778c72.28188445 1.51324445 129.83637333 2.86606222 172.66574222 4.03114667a1574.19178667 1574.19178667 0 0 1-40.31146667 46.60337778l20.24789333 15.03004443z m339.92590222-114.03832889a22.99904 22.99904 0 0 0-14.33144888 4.96298667L704.61098667 479.59936a23.27893333 23.27893333 0 1 0 28.70613334 36.67740446l145.82328888-114.22492446a23.27893333 23.27893333 0 0 0-14.37696-41.64039111zM864.01706667 356.89344000000006a23.27893333 23.27893333 0 0 0-18.38421333 37.58535112l113.68789333 146.26474666a23.30168889 23.30168889 0 0 0 36.81735112-28.59235556L882.44906667 365.88871111000003a23.30168889 23.30168889 0 0 0-18.432-8.99413332z"  horiz-adv-x="1024" />

    
    <glyph glyph-name="shezhi" unicode="&#58882;" d="M551.025 498.736A114.705 114.705 0 1 0 436.32 384.03a114.894 114.894 0 0 0 114.705 114.705m0 91.864a206.443 206.443 0 1 1 206.443-206.442A206.38 206.38 0 0 1 551.025 590.6z m0 0M387.984 804.193a15.121 15.121 0 0 0 11.072-5.315 156.588 156.588 0 0 1 151.842-70.67 156.588 156.588 0 0 1 151.843 70.67 15.248 15.248 0 0 0 11.452 4.998l118.5-67.696a17.968 17.968 0 0 0 0.823-13.92 156.082 156.082 0 0 1 15.247-165.887 158.17 158.17 0 0 1 133.559-96.357h3.796a28.66 28.66 0 0 0 20.499-14.932 426.362 426.362 0 0 0 3.163-61.116 430.854 430.854 0 0 0-3.163-61.117 28.66 28.66 0 0 0-21.195-14.741h-3.163a157.727 157.727 0 0 1-133.243-96.168 156.335 156.335 0 0 1-15.247-166.204 17.968 17.968 0 0 0-0.823-13.919L713.94-35.878a15.121 15.121 0 0 0-11.389 5.315 156.461 156.461 0 0 1-151.842 70.67 156.398 156.398 0 0 1-151.843-70.67 14.994 14.994 0 0 0-11.578-4.998l-118.5 67.696a17.968 17.968 0 0 0-0.823 13.92 156.461 156.461 0 0 1-14.615 166.583 157.727 157.727 0 0 1-133.432 96.168h-3.923A29.483 29.483 0 0 0 95.18 323.23a426.362 426.362 0 0 0-3.163 61.116 426.362 426.362 0 0 0 3.163 61.117 28.913 28.913 0 0 0 21.195 14.931h3.163a158.17 158.17 0 0 1 133.812 96.167 155.765 155.765 0 0 1 15.058 166.205 17.525 17.525 0 0 0 0.822 13.73l118.754 67.696M387.667 895.93a97.622 97.622 0 0 1-35.62-6.327l-139.189-79.78a107.555 107.555 0 0 1-22.207-135.9s12.654-20.372-16.702-71.682c-28.787-49.35-52.45-50.172-54.158-50.172h-3.67A118.248 118.248 0 0 1 5.72 466.153a399.283 399.283 0 0 1-5.442-81.995 399.283 399.283 0 0 1 5.442-82.249 118.121 118.121 0 0 1 110.086-85.601h3.796c1.645 0 25.307-0.823 53.967-50.614 29.483-51.184 16.893-71.493 16.893-71.493a107.555 107.555 0 0 1 22.333-136.09l139.19-79.78a97.622 97.622 0 0 1 35.62-6.327 105.34 105.34 0 0 1 92.56 54.158s11.451 21.7 70.67 21.7 70.67-21.7 70.67-21.7a105.594 105.594 0 0 1 92.688-54.158 97.622 97.622 0 0 1 35.62 6.327l139.189 79.654a107.872 107.872 0 0 1 22.333 136.09s-12.653 20.372 16.893 71.492c28.66 49.476 52.322 50.614 53.777 50.614h3.67a118.184 118.184 0 0 1 110.086 85.602 399.283 399.283 0 0 1 5.441 82.248 399.283 399.283 0 0 1-5.441 82.248 117.931 117.931 0 0 1-110.086 85.602h-3.67c-1.645 0-25.307 0.822-53.777 50.614-29.483 51.184-16.703 71.492-16.703 71.492a107.555 107.555 0 0 1-22.333 135.9L749.876 889.604a97.622 97.622 0 0 1-35.62 6.327 105.467 105.467 0 0 1-92.56-54.284s-11.39-21.637-70.671-21.637-70.67 21.7-70.67 21.7A105.91 105.91 0 0 1 387.667 895.932z m0 0"  horiz-adv-x="1101" />

    
    <glyph glyph-name="shezhi1" unicode="&#58900;" d="M1018.6 456.8c-4.5 31.1-25.5 56.3-54.4 68.6-32.8 14-61.4 38.2-80.6 71.4-19.2 33.3-25.9 70.3-21.5 105.7 3.8 31.1-7.5 61.9-32.1 81.4-38 30.1-80.3 54.9-126 73.4-10.4 4.2-21.3 6.2-32.1 6.2-19.6 0-39-6.7-55.4-19C588 823 552.5 810.2 514 810.2c-39 0-74.9 13.1-103.5 35.2-16.4 12.6-35.9 19.4-55.7 19.4-10.6 0-21.3-2-31.6-6-45.2-17.9-87.2-42.1-125-71.5-25.3-19.6-36.6-51.2-32.4-82.9 4.8-35.9-1.8-73.6-21.3-107.4-19.7-34.2-49.5-58.9-83.5-72.6-29.7-12-51.5-37.6-56-69.3-3.3-23.7-5-47.8-5-72.4 0-23.9 1.6-47.3 4.8-70.3 4.4-31.9 26.4-57.5 56.2-69.5 34-13.7 63.8-38.4 83.6-72.6 19.7-34.1 26.2-72.2 21.1-108.4-4.4-31.8 6.8-63.6 32.2-83.3 37.5-29.1 79.1-53.2 123.9-71.1 10.3-4.1 21-6.1 31.7-6.1 20 0 39.8 7 56.2 19.8 28.8 22.4 65 35.8 104.4 35.8 38.9 0 74.7-13.1 103.3-35 16.5-12.6 36.1-19.5 55.9-19.5 10.8 0 21.7 2 32.2 6.3 45.2 18.4 87.1 43.1 124.8 73 24.7 19.6 35.9 50.5 31.9 81.8-4.6 35.7 2 73.1 21.4 106.7 19.2 33.2 47.9 57.5 80.7 71.5 29 12.4 50.2 37.7 54.6 68.9 3.3 23.6 5.1 47.6 5.1 72.1 0 25.1-1.8 49.8-5.4 74z m-41.9-140.2c-2.2-15.5-13.1-28.8-29.1-35.6-42.8-18.2-77.7-49.1-100.9-89.4-23.5-40.7-32.8-86.9-26.8-133.5 2.2-17.1-3.8-33.2-16.1-42.9-34.8-27.6-73.3-50.2-114.4-66.9-5.1-2.1-10.5-3.1-16-3.1-10.3 0-21 3.8-30 10.7-37.4 28.7-82.1 43.8-129.3 43.8-47.8 0-92.9-15.5-130.6-44.8-9-7-19.6-10.8-30-10.8-5.4 0-10.7 1-15.8 3-40.6 16.3-78.8 38.2-113.5 65.2-12.6 9.8-18.6 26.1-16.1 43.8 6.6 47.3-2.6 94.3-26.5 135.7-24 41.5-60.1 72.9-104.6 90.9-16.6 6.7-27.8 20.1-29.9 35.8-2.9 21.2-4.4 42.9-4.4 64.5 0 22.2 1.6 44.5 4.7 66.3 2.2 15.7 13.4 29.1 29.8 35.7 44.4 17.9 80.5 49.4 104.5 90.8 23.7 41 32.9 87.5 26.6 134.4-2.3 17.6 3.7 33.9 16.3 43.6 35 27.2 73.6 49.2 114.6 65.5 5.1 2 10.4 3 15.8 3 10.3 0 20.9-3.7 29.7-10.5 37.5-28.8 82.3-44 129.5-44 46.7 0 91 14.9 128.2 43 8.9 6.7 19.4 10.4 29.7 10.4 5.5 0 10.9-1.1 16.1-3.1 41.5-16.8 80.3-39.4 115.5-67.3 12.3-9.7 18.3-25.7 16.2-42.7-5.7-46.2 3.7-91.9 26.9-132.2 23.2-40.2 58.1-71.1 100.8-89.4 15.9-6.8 26.7-20 28.9-35.5 3.3-22.4 4.9-45.2 4.9-67.9-0.1-22.5-1.6-44.8-4.7-66.5zM514.1 550.7c-94.3 0-170.7-76.4-170.7-170.7s76.4-170.7 170.7-170.7S684.8 285.8 684.8 380s-76.4 170.7-170.7 170.7z m90.5-261.2c-24.2-24.2-56.3-37.5-90.5-37.5s-66.3 13.3-90.5 37.5c-24.2 24.2-37.5 56.3-37.5 90.5s13.3 66.3 37.5 90.5c24.2 24.2 56.3 37.5 90.5 37.5s66.3-13.3 90.5-37.5c24.2-24.2 37.5-56.3 37.5-90.5s-13.3-66.3-37.5-90.5z"  horiz-adv-x="1024" />

    
    <glyph glyph-name="chongzhi1" unicode="&#58902;" d="M273.28 312.704v-57.28h210.048v-190.976h57.28V255.424h210.048v57.28H540.672v114.56H750.72v57.344H581.952L704.96 607.616l-41.28 41.28L512 497.216l-151.616 151.68-41.28-41.28 123.008-123.008H273.28v-57.28h210.048v-114.56H273.28z m0 0M512 832c247.04 0 448-200.96 448-448S759.04-64 512-64 64 136.96 64 384 264.96 832 512 832m0 64C229.248 896 0 666.752 0 384s229.248-512 512-512 512 229.248 512 512S794.752 896 512 896z"  horiz-adv-x="1024" />

    
    <glyph glyph-name="tuikuan2" unicode="&#58903;" d="M693.095 614.24L561.462 390.303h103.719v-49.478H544.334v-68.194h120.847v-50.116H544.334v-99.276H482.17v99.276H356.88v50.116h125.29v68.194H356.88v49.478h106.893L333.41 614.24h70.1c60.896-111.23 97.898-181.748 111.012-211.563h1.269c4.442 12.263 16.597 37.003 36.475 74.22l74.537 137.343h66.293z m91.376-339.689c-15.062 0-27.248-12.187-27.248-27.247s12.187-27.248 27.248-27.248h71.981C795.247 91.21199999999999 664.113 2.07000000000005 511.988 2.07000000000005c-210.669 0-381.48 170.782-381.48 381.475 0 210.697 170.811 381.466 381.48 381.466 192.121 0 350.636-142.19 377.138-326.97h55.08C917.333 653.048 734.256 819.5070000000001 511.988 819.5070000000001c-240.79 0-435.976-195.195-435.976-435.962 0-240.763 195.185-435.972 435.976-435.972 164.236 0 307.128 90.895 381.475 225.065v-61.576c0-15.062 12.188-27.248 27.277-27.248 15.004 0 27.248 12.188 27.248 27.248V247.30200000000002c0 3.298 0 27.248-27.248 27.248H784.47v0.001z m0 0"  horiz-adv-x="1024" />

    
    <glyph glyph-name="xianshikejian" unicode="&#58904;" d="M513 123.3c-167.2 0-302.6 76.8-406.1 230.3-11.9 17.6-11.8 40.7 0.2 58.3C212 565.5 347.3 642.3 513 642.3s301-76.8 406-230.4c12-17.6 12-40.7 0.2-58.3-103.6-153.5-239-230.3-406.2-230.3z m0 103.8c88 0 159.3 69.7 159.3 155.7S601 538.5 513 538.5s-159.3-69.7-159.3-155.7S425 227.1 513 227.1z m0.2 76.7c-44 0-79.7 34.8-79.7 77.9 0 43 35.7 77.9 79.7 77.9s79.6-34.9 79.6-77.9c0-43-35.6-77.9-79.6-77.9z"  horiz-adv-x="1024" />

    
    <glyph glyph-name="dingwei" unicode="&#58905;" d="M537.6 768c96-6.4 185.6-44.8 249.6-108.8S889.6 505.6 896 409.6h89.6c12.8 0 25.6-12.8 25.6-25.6s-12.8-25.6-25.6-25.6H896c-6.4-96-44.8-185.6-108.8-249.6S640 6.4 537.6 0v-89.6c0-12.8-12.8-25.6-25.6-25.6s-25.6 12.8-25.6 25.6V0c-96 6.4-185.6 44.8-249.6 108.8S134.4 256 128 358.4H38.4c-12.8 0-19.2 12.8-19.2 25.6s12.8 25.6 25.6 25.6H128c6.4 96 44.8 185.6 108.8 249.6S390.4 761.6 486.4 768V857.6c0 12.8 12.8 25.6 25.6 25.6s25.6-12.8 25.6-25.6V768zM512 422.4c19.2 0 38.4-19.2 38.4-38.4s-19.2-38.4-38.4-38.4-38.4 19.2-38.4 38.4 19.2 38.4 38.4 38.4z m0 147.2c51.2 0 96-19.2 128-51.2s51.2-76.8 51.2-128-19.2-96-51.2-128-76.8-51.2-128-51.2-96 19.2-128 51.2c-32 25.6-57.6 70.4-57.6 121.6 0 51.2 19.2 96 51.2 128 38.4 32 83.2 57.6 134.4 57.6z m96-89.6c-25.6 25.6-57.6 38.4-96 38.4s-70.4-12.8-96-38.4c-25.6-25.6-38.4-57.6-38.4-96s12.8-70.4 38.4-96c25.6-25.6 57.6-38.4 96-38.4s70.4 12.8 96 38.4c25.6 25.6 38.4 57.6 38.4 96s-12.8 70.4-38.4 96z m121.6 121.6C672 652.8 595.2 691.2 512 691.2c-83.2 0-160-32-217.6-89.6-51.2-57.6-89.6-134.4-89.6-217.6 0-83.2 32-160 89.6-217.6 57.6-57.6 128-89.6 217.6-89.6 83.2 0 160 32 217.6 89.6 57.6 57.6 89.6 134.4 89.6 217.6 0 83.2-38.4 160-89.6 217.6z"  horiz-adv-x="1024" />

    
    <glyph glyph-name="shujutongji" unicode="&#58906;" d="M975.557-128H127.212C59.432-128 0-75.382 0-15.202V783.202C0 843.382 59.392 896 127.212 896h848.345c67.78 0 127.212-52.618 127.212-112.798v-798.404c0-60.18-59.392-112.798-127.212-112.798zM413.538-9.846c23.631 0 59.077 27.57 59.077 68.923V472.615c0 41.354-23.63 68.923-59.077 68.923s-59.076-27.569-59.076-68.923v-413.538c0-41.354 23.63-68.923 59.076-68.923z m275.693 0c35.446 0 59.077 25.206 59.077 63.015V242.215c0 37.81-23.631 63.016-59.077 63.016s-59.077-25.206-59.077-63.016V53.17c0-37.809 23.63-63.015 59.077-63.015z m236.307 0c35.447 0 59.077 26.27 59.077 65.654v65.615c0 39.384-23.63 65.654-59.077 65.654s-59.076-26.27-59.076-65.654v-65.615c0-39.385 23.63-65.654 59.076-65.654z m-748.307 0c23.63 0 59.077 27.175 59.077 68.017V670.444c0 40.803-23.631 68.018-59.077 68.018s-59.077-27.176-59.077-68.018v-612.273c0-40.802 23.63-68.017 59.077-68.017z"  horiz-adv-x="1102" />

    
    <glyph glyph-name="xianshimima" unicode="&#58907;" d="M500.663 676.571A407.406 407.406 0 0 0 665.6 640a595.749 595.749 0 0 0 159.451-103.863 964.023 964.023 0 0 0 109.715-117.394 29.257 29.257 0 0 0 0-39.863 758.126 758.126 0 0 0-84.115-102.766A611.474 611.474 0 0 0 709.12 166.4a416.914 416.914 0 0 0-144.091-49.737 379.611 379.611 0 0 0-185.052 20.48A565.029 565.029 0 0 0 212.846 241.37 957.074 957.074 0 0 0 81.189 381.806a25.234 25.234 0 0 0 0 36.571 721.189 721.189 0 0 0 163.84 167.497 491.154 491.154 0 0 0 138.24 71.315 381.074 381.074 0 0 0 117.394 19.382z m194.194-109.714a216.137 216.137 0 0 0-47.543-268.068 212.846 212.846 0 0 0-256-16.092 208.091 208.091 0 0 0-90.697 131.657 214.674 214.674 0 0 0 25.234 157.623A632.686 632.686 0 0 1 135.314 401.92a1080.32 1080.32 0 0 1 76.8-85.943 651.337 651.337 0 0 1 80.457-67.657 402.286 402.286 0 0 1 167.132-73.143 320.731 320.731 0 0 1 118.126 0 409.234 409.234 0 0 1 157.988 73.143 670.354 670.354 0 0 1 146.286 146.286 4.754 4.754 0 0 1 0 6.948c-15.36 17.189-30.72 36.572-46.446 51.932a640.366 640.366 0 0 1-117.76 99.84l-23.04 13.531z m-334.263-115.2a73.143 73.143 0 0 1 4.023-12.8 22.674 22.674 0 0 1 41.326 11.337 238.446 238.446 0 0 0 6.948 36.572 101.669 101.669 0 0 0 90.698 73.143 24.137 24.137 0 0 1 22.308 25.234 18.651 18.651 0 0 1-20.48 18.286h-14.263a157.623 157.623 0 0 1-73.143-32.549 168.96 168.96 0 0 1-55.954-119.223z"  horiz-adv-x="1024" />

    
    <glyph glyph-name="shuju1" unicode="&#58908;" d="M242.5 392c10.3 0 18.7 8.4 18.7 18.6V806.5c0 10.3-8.4 18.7-18.7 18.7-10.3 0-18.6-8.4-18.6-18.7v-395.8c0-10.3 8.3-18.7 18.6-18.7zM382 552.9c10.3 0 18.7 8.4 18.7 18.7V806.5c0 10.3-8.4 18.7-18.7 18.7-10.3 0-18.7-8.4-18.7-18.7v-234.9c0.1-10.3 8.4-18.7 18.7-18.7z m139.6-79.2c10.3 0 18.7 8.4 18.7 18.7V806.5c0 10.3-8.4 18.7-18.7 18.7-10.3 0-18.7-8.4-18.7-18.7v-314.1c0-10.3 8.3-18.7 18.7-18.7z m139.5 169.6c10.3 0 18.6 8.4 18.6 18.7V806.5c0 10.3-8.3 18.7-18.6 18.7s-18.7-8.4-18.7-18.7v-144.6c0-10.3 8.4-18.6 18.7-18.6zM940.1 567.1c-10.3 0-18.6-8.4-18.6-18.7v-551H819.2V423c0 10.3-8.3 18.6-18.6 18.6s-18.7-8.3-18.7-18.6v-425.6H679.7V225.5c0 10.3-8.3 18.7-18.6 18.7s-18.7-8.4-18.7-18.7v-228.1H540.2V134.7c0 10.3-8.4 18.7-18.7 18.7-10.3 0-18.7-8.4-18.7-18.7v-137.3H400.7V166.9c0 10.3-8.4 18.7-18.7 18.7-10.3 0-18.7-8.4-18.7-18.7v-169.5H261.2v18c0 10.3-8.4 18.6-18.7 18.6-10.3 0-18.6-8.3-18.6-18.6v-18h-79.5L393 361.5l144.5-90.2c12.6-7.9 29.2-4.5 37.8 7.7l311.8 446.1 12.6-65.7c2.6-13.4 14.3-22.7 27.5-22.7 1.7 0 3.5 0.2 5.3 0.5 15.2 2.9 25.1 17.5 22.2 32.7L930 798.5c-1.4 7.3-5.6 13.7-11.8 17.9-6.1 4.2-13.7 5.7-21 4.3L768.6 796.2c-15.2-2.9-25.1-17.6-22.2-32.7 2.9-15.2 17.5-25.2 32.7-22.2l58.8 11.3-293.3-419.8-144.7 90.3c-12.7 8-29.5 4.4-37.9-7.9L119.3 60V794.6c0 15.5-12.5 28-28 28s-28-12.5-28-28v-825.2c0-0.4 0.1-0.7 0.1-1 0.1-1.5 0.2-2.9 0.4-4.4 0.2-0.8 0.5-1.6 0.7-2.4 0.3-0.9 0.5-1.9 0.9-2.8 0.3-0.8 0.8-1.6 1.2-2.3 0.4-0.8 0.8-1.7 1.3-2.5 0.5-0.7 1.1-1.4 1.7-2.1 0.6-0.7 1.1-1.5 1.8-2.1 0.9-0.9 1.9-1.7 2.9-2.5 0.4-0.3 0.7-0.7 1.2-1h0.1c0.1-0.1 0.3-0.2 0.5-0.3 1.3-0.8 2.5-1.5 3.9-2.1 0.5-0.2 0.9-0.4 1.4-0.5 1.1-0.4 2.3-0.8 3.5-1.1 0.5-0.1 1-0.2 1.4-0.3 1.7-0.3 3.3-0.5 5-0.5h837.1c10.5 0 19.5 5.8 24.3 14.3 3.7 3.4 6.1 8.2 6.1 13.7v579c-0.1 10.2-8.4 18.6-18.7 18.6z"  horiz-adv-x="1024" />

    
    <glyph glyph-name="liebiao" unicode="&#58911;" d="M886.285 683.063L752.61 802.31c-6.198 5.451-14.623 8.524-23.359 8.524H161.519c-18.388 0-33.3-13.26-33.3-29.618V-11.34c0-16.385 15.219-31.328 33.606-31.328h701.64c18.388 0 32.754 18.12 32.754 34.504v670.11c0.001 7.949-3.596 15.529-9.934 21.117z m-32.954-683.14l-682.32 1.053 0.446 767.062 511.43 0.205v-112.648c0-9.797 6.591-15.121 17.661-15.121l152.243-0.206 0.54-640.346zM725.127 512.704H299.313a0.428 0.428 0 0 0-0.426 0.427v41.736c0 0.235 0.192 0.427 0.426 0.427h425.814c0.234 0 0.426-0.192 0.426-0.427v-41.736a0.427 0.427 0 0 0-0.426-0.427z m0-127.77H299.313a0.428 0.428 0 0 0-0.426 0.427v41.736c0 0.235 0.192 0.427 0.426 0.427h425.814c0.234 0 0.426-0.192 0.426-0.427v-41.736a0.428 0.428 0 0 0-0.426-0.427z m0-127.77H299.313a0.428 0.428 0 0 0-0.426 0.427V299.33c0 0.235 0.192 0.427 0.426 0.427h425.814c0.234 0 0.426-0.192 0.426-0.427v-41.737a0.428 0.428 0 0 0-0.426-0.426z m0-127.769H299.313a0.428 0.428 0 0 0-0.426 0.427v41.736c0 0.235 0.192 0.427 0.426 0.427h425.814c0.234 0 0.426-0.192 0.426-0.427v-41.736a0.428 0.428 0 0 0-0.426-0.427z"  horiz-adv-x="1024" />

    
    <glyph glyph-name="liebiao1" unicode="&#58912;" d="M886.285 683.063L752.61 802.31c-6.198 5.451-14.623 8.524-23.359 8.524H161.519c-18.388 0-33.3-13.26-33.3-29.618V-11.34c0-16.385 15.219-31.328 33.606-31.328h701.64c18.388 0 32.754 18.12 32.754 34.504v670.11c0.001 7.949-3.596 15.529-9.934 21.117z m-32.954-683.14l-682.32 1.053 0.446 767.062 511.43 0.205v-112.648c0-9.797 6.591-15.121 17.661-15.121l152.243-0.206 0.54-640.346zM725.127 512.704H299.313a0.428 0.428 0 0 0-0.426 0.427v41.736c0 0.235 0.192 0.427 0.426 0.427h425.814c0.234 0 0.426-0.192 0.426-0.427v-41.736a0.427 0.427 0 0 0-0.426-0.427z m0-127.77H299.313a0.428 0.428 0 0 0-0.426 0.427v41.736c0 0.235 0.192 0.427 0.426 0.427h425.814c0.234 0 0.426-0.192 0.426-0.427v-41.736a0.428 0.428 0 0 0-0.426-0.427z m0-127.77H299.313a0.428 0.428 0 0 0-0.426 0.427V299.33c0 0.235 0.192 0.427 0.426 0.427h425.814c0.234 0 0.426-0.192 0.426-0.427v-41.737a0.428 0.428 0 0 0-0.426-0.426z m0-127.769H299.313a0.428 0.428 0 0 0-0.426 0.427v41.736c0 0.235 0.192 0.427 0.426 0.427h425.814c0.234 0 0.426-0.192 0.426-0.427v-41.736a0.428 0.428 0 0 0-0.426-0.427z"  horiz-adv-x="1024" />

    
    <glyph glyph-name="shangsheng" unicode="&#58913;" d="M445.155 616.993v-645.749c0-19.241 15.436-34.839 35.136-34.839h68.976c19.405 0 35.136 15.579 35.136 34.839V627.743l206.75-203.214c6.875-6.859 18.191-6.685 25.279 0.399l48.781 48.782c7.086 7.086 7.278 18.402 0.4 25.262L587.631 772.219a20.339 20.339 0 0 1-4.111 5.902l-53.198 53.216c-4.188 4.188-9.724 6.164-15.116 5.902-4.957 0.251-10.07-1.559-13.931-5.41l-38.706-38.731-298.166-286.89c-7.517-7.499-7.308-19.838 0.423-27.567l53.198-53.216c7.751-7.732 20.085-7.924 27.567-0.422l199.555 191.993z"  horiz-adv-x="1024" />

    
    <glyph glyph-name="xiajiang" unicode="&#58914;" d="M584.407 156.674V802.423c0 19.241-15.436 34.839-35.141 34.839H480.29c-19.405 0-35.136-15.579-35.136-34.839v-656.499L238.403 349.138c-6.877 6.859-18.191 6.685-25.279-0.399l-48.781-48.782c-7.086-7.086-7.278-18.402-0.4-25.262l277.984-273.247a20.339 20.339 0 0 1 4.111-5.902l53.198-53.216c4.188-4.188 9.724-6.164 15.116-5.902 4.964-0.251 10.07 1.559 13.931 5.41l38.706 38.731 298.166 286.89c7.517 7.499 7.308 19.838-0.423 27.567l-53.198 53.216c-7.751 7.732-20.085 7.924-27.567 0.422L584.412 156.671z"  horiz-adv-x="1024" />

    
    <glyph glyph-name="duankai" unicode="&#58915;" d="M281.6-128c-76.8 0-143.36 30.72-199.68 81.92C30.72 5.12 0 76.8 0 153.6s30.72 143.36 81.92 199.68L204.8 471.04l46.08-46.08L128 302.08c-40.96-40.96-61.44-92.16-61.44-148.48 0-56.32 20.48-112.64 61.44-158.72 40.96-40.96 97.28-61.44 153.6-61.44s112.64 25.6 153.6 61.44l122.88 122.88 46.08-46.08L481.28-51.2C424.96-97.28 358.4-128 281.6-128zM112.64 737.28l46.08 46.08 752.64-752.64-46.08-46.08z m660.48-394.24L896 465.92c40.96 40.96 61.44 92.16 61.44 148.48 0 56.32-20.48 112.64-61.44 158.72-40.96 40.96-97.28 61.44-153.6 61.44s-112.64-25.6-153.6-61.44l-117.76-128-46.08 46.08L547.84 814.08C599.04 865.28 670.72 896 747.52 896S890.88 865.28 947.2 814.08c107.52-107.52 107.52-286.72 0-399.36l-128-117.76-46.08 46.08z"  horiz-adv-x="1027" />

    
    <glyph glyph-name="tianjia" unicode="&#58916;" d="M511.68 832.32c-247.776 0-448.576-200.8-448.576-448.576s200.8-448.64 448.576-448.64c247.808 0 448.608 200.8 448.608 448.64C960.256 631.488 759.456 832.32 511.68 832.32z m0-832c-211.712 0-384 172.256-384 384s172.288 384 384 384c211.744 0 384.032-172.256 384.032-384s-172.32-384-384.032-384z m27.232 588.928c0 17.6-13.504 32-30.016 32s-30.016-14.4-30.016-32V419.264c0-2.592-2.08-4.704-4.672-4.704h-167.68c-17.6 0-32-13.216-32-29.344 0-16.16 14.4-29.376 32-29.376h168.416c2.144 0 3.936-2.08 3.936-4.672v-171.84c0-17.6 13.504-32 30.016-32s30.016 14.4 30.016 32V316.992v35.392c0 1.856 1.6 3.392 3.552 3.392H716.832c17.6 0 32 13.216 32 29.376 0 16.128-14.4 29.344-32 29.344H543.2c-2.368 0-4.288 2.592-4.288 5.728V589.248z"  horiz-adv-x="1024" />

    
    <glyph glyph-name="icon_xie" unicode="&#58917;" d="M937.43908 468.355v-509.892s-0.512-0.512-0.14-0.512H85.53308c0.14 0-0.303 0.372-0.303 0.21V763.59c0 0.139 0 0.139-0.14 0.139h474.745V848.983H85.16008A85.277 85.277 0 0 1 0.00008 763.59v-805.36c0-46.755 38.289-85.532 85.463-85.532h851.86c46.523 0 85.37 38.405 85.37 85.835V468.355h-85.254z m0 0M396.81808 370.82l101.793-100.955L883.58808 654.61 781.77308 755.542z m613.406 474.465L972.82008 882.387c-17.749 17.632-45.802 18.353-63.504 0.651l-95.838-95.79 102.025-100.77 95.535 95.466c17.726 17.725 16.981 45.685-0.814 63.34z m-701.753-663.79L466.30008 237.81 364.48408 338.79z"  horiz-adv-x="1024" />

    
    <glyph glyph-name="shezhi2" unicode="&#58919;" d="M929.483 490.433l-69.316-40.37c3.907-21.193 6.444-42.85 6.444-65.176s-2.537-43.987-6.444-65.177l69.316-40.37c28.335-16.47 38.04-52.993 21.686-81.531l-59.205-103.42c-16.353-28.538-52.554-38.33-80.887-21.832l-70.014 40.779c-32.708-28.098-69.93-51.04-111.263-65.816v-50.66c0-32.97-26.497-59.697-59.203-59.697h-118.4c-32.706 0-59.232 26.727-59.232 59.697v50.66c-41.334 14.776-78.525 37.718-111.231 65.816l-70.044-40.779c-28.304-16.497-64.507-6.706-80.887 21.832L71.631 197.81c-16.383 28.538-6.646 65.06 21.657 81.53l69.314 40.37c-3.876 21.191-6.442 42.852-6.442 65.178s2.566 43.983 6.442 65.176l-69.314 40.37c-28.303 16.47-38.04 52.991-21.657 81.529l59.171 103.423c16.38 28.535 52.583 38.33 80.887 21.83l70.044-40.747c32.706 28.071 69.9 51.04 111.231 65.789v50.66c0 32.97 26.526 59.698 59.231 59.698h118.403c32.706 0 59.203-26.729 59.203-59.698v-50.66c41.333-14.749 78.555-37.718 111.263-65.789l70.014 40.747c28.334 16.5 64.537 6.705 80.887-21.83l59.205-103.423c16.353-28.537 6.648-65.06-21.687-81.529z m-44.365 77.537l-29.614 51.709c-8.162 14.283-26.29 19.15-40.459 10.931l-82.23-47.892c-41.768 47.482-98.175 81.559-162.213 94.644v65.703c0 16.497-13.261 29.849-29.613 29.849h-59.203c-16.352 0-29.587-13.353-29.587-29.85v-65.702c-64.067-13.085-120.474-47.162-162.216-94.644l-82.256 47.892c-14.136 8.219-32.27 3.352-40.43-10.931l-29.615-51.71c-8.165-14.255-3.325-32.53 10.846-40.78l82.58-48.065c-9.827-29.703-15.713-61.213-15.713-94.239 0-33.028 5.888-64.538 15.712-94.239l-82.577-48.068c-14.17-8.249-19.006-26.497-10.846-40.778l29.614-51.71c8.163-14.284 26.293-19.151 40.43-10.902l82.23 47.863c41.769-47.484 98.176-81.53 162.243-94.646v-65.7c0-16.47 13.236-29.85 29.588-29.85h59.202c16.352 0 29.613 13.38 29.613 29.85v65.7c64.04 13.115 120.44 47.162 162.213 94.646l82.23-47.863c14.17-8.25 32.3-3.382 40.459 10.903L885.12 201.8c8.164 14.28 3.295 32.53-10.845 40.778l-82.608 48.068c9.851 29.701 15.742 61.211 15.742 94.24 0 33.024-5.89 64.535-15.742 94.238l82.608 48.066c14.136 8.248 19.007 26.525 10.843 40.78zM511.402 235.64c-81.762 0-148.022 66.81-148.022 149.244 0 82.432 66.258 149.24 148.022 149.24 81.733 0 147.987-66.808 147.987-149.24 0-82.434-66.254-149.244-147.987-149.244z m0 238.789c-49.058 0-88.816-40.079-88.816-89.544 0-49.465 39.758-89.545 88.816-89.545 49.056 0 88.816 40.08 88.816 89.545s-39.761 89.544-88.816 89.544z"  horiz-adv-x="1025" />

    
    <glyph glyph-name="shezhi3" unicode="&#58921;" d="M878.797 350.26c1.075 11.16 1.74 22.374 1.74 33.74s-0.665 22.58-1.74 33.74l85.555 67.636c18.534 15.155 23.296 41.267 11.418 61.9L884.53 706.919c-11.571 20.276-36.352 30.004-59.801 20.992l-100.25-40.755c-18.38 13.21-37.632 24.525-57.446 33.792l-15.207 108.34c-3.584 23.449-24.166 41.113-47.82 41.113H421.477c-23.961 0-44.083-17.254-47.872-41.472l-15.155-107.98c-19.865-9.32-39.117-20.634-57.497-33.793l-100.506 40.909c-21.658 8.397-47.872-0.87-59.443-21.146l-91.239-159.59c-11.878-20.787-7.116-46.9 11.725-62.208l85.197-67.38c-1.075-11.11-1.74-22.374-1.74-33.74s0.665-22.63 1.74-33.74L61.03 282.623c-18.38-15.206-23.142-41.267-11.264-61.85l91.29-159.744c11.622-20.224 36.966-29.952 59.75-20.89l100.25 40.756c18.432-13.21 37.683-24.525 57.446-33.74l15.207-108.494c3.737-23.808 23.859-41.062 47.77-41.062h182.476c23.655 0 44.186 17.664 47.923 41.472l15.156 108.032a363.575 363.575 0 0 1 57.446 33.792l100.506-40.96c5.632-2.202 11.52-3.277 17.561-3.277 17.203 0 33.28 9.319 41.984 24.423l91.085 159.539c11.93 20.582 7.322 46.694-11.674 62.413l-85.145 67.225zM843.98 87.5l-113.613 46.234c-8.5 3.533-18.125 2.15-25.344-3.481-22.426-17.408-46.387-31.488-71.27-41.83-8.346-3.482-14.234-11.162-15.514-20.122l-16.742-119.552-177.204-2.611-17.1 122.163c-1.23 8.96-7.168 16.589-15.514 20.121-24.678 10.24-48.691 24.372-71.27 41.83a25.85 25.85 0 0 1-15.668 5.326c-3.225 0-6.502-0.615-9.625-1.895l-109.62-47.257-92.21 156.364 96.358 76.084c7.065 5.58 10.65 14.49 9.523 23.398-1.843 13.722-3.02 27.597-3.02 41.728s1.177 28.006 2.969 41.626c1.177 8.96-2.407 17.817-9.523 23.398l-95.386 72.858 87.296 158.617 113.51-46.182a25.539 25.539 0 0 1 25.344 3.43c22.477 17.408 46.541 31.54 71.424 41.984 8.346 3.482 14.183 11.11 15.463 20.07L421.478 819.2l179.712 2.611L618.291 699.7c1.229-8.96 7.168-16.589 15.514-20.07 24.78-10.343 48.793-24.423 71.321-41.882 7.27-5.58 16.896-6.912 25.344-3.481l109.62 47.206 92.262-156.262-96.41-76.186c-7.065-5.58-10.7-14.438-9.574-23.347 1.74-13.722 3.02-27.597 3.02-41.728s-1.228-28.007-3.02-41.728c-1.126-8.909 2.509-17.767 9.574-23.347l95.335-72.756-87.296-158.617zM512.819 577.025c-105.574 0-191.437-86.58-191.437-193.024 0-106.394 85.863-193.024 191.437-193.024 105.575 0 191.386 86.58 191.386 193.024 0 106.445-85.863 193.024-191.386 193.024z m0-334.848c-77.312 0-140.237 63.59-140.237 141.824s62.925 141.824 140.237 141.824S653.005 462.182 653.005 384 590.08 242.176 512.819 242.176z"  horiz-adv-x="1024" />

    
    <glyph glyph-name="guanfang" unicode="&#58922;" d="M384 426.432h255.872v-42.112H384v42.112zM955.584 502.784V640l-118.848 68.672-68.544 118.656H630.848L512 896 393.344 827.328h-137.28l-68.608-118.656L68.608 640v-137.216L0 384l68.608-118.848V128l118.784-68.544L256-59.328h137.28L512-128l118.848 68.608h137.28l68.544 118.784L955.584 128V265.152L1024 384l-68.416 118.784zM746.688 149.12c0-6.272 0.768-17.92-2.24-22.592A37.504 37.504 0 0 0 733.12 115.2a56.576 56.576 0 0 0-15.296-6.656 67.136 67.136 0 0 0-16.64-2.176h-403.2V458.816c0 5.888 1.472 11.136 4.416 15.808s6.784 8.512 11.648 11.648a52.352 52.352 0 0 0 15.808 6.912c5.696 1.472 11.2 2.24 16.32 2.24h379.456l-0.32-138.944a29.12 29.12 0 0 0-4.352-15.872 37.888 37.888 0 0 0-11.392-11.392 57.216 57.216 0 0 0-15.552-6.912 58.368 58.368 0 0 0-16.32-2.56H384v-21.312l362.688-0.704V149.12zM768 511.808h-85.312v42.624H341.312v-42.688H256v66.24a32.64 32.64 0 0 0 9.92 23.808v-0.512a48 48 0 0 0 17.472 12.672 53.248 53.248 0 0 0 21.312 4.48h164.608v21.376h85.376v-21.312H768v-106.688zM384 213.12h277.312v-42.688H384V213.12z"  horiz-adv-x="1024" />

    


  </font>
</defs>
</svg>
